<?xml version="1.0" standalone="no"?>
  <!DOCTYPE svg PUBLIC "-//W3C//DTD SVG 1.1//EN" "http://www.w3.org/Graphics/SVG/1.1/DTD/svg11.dtd" >
  <svg>
  <metadata>
  Created by font-carrier
  </metadata>
  <defs>
  <font id="iconfont" horiz-adv-x="1024" vert-adv-y="1024" >
    <font-face
      
      font-family="iconfont"
      
      font-weight="400"
      
      font-stretch="normal"
      
      units-per-em="1024"
      
      ascent="812"
      
      descent="-212"
      
    />
      <missing-glyph />

      
      <glyph glyph-name="x" unicode="&#x78;" horiz-adv-x="100"
        d="M20 20 L50 20 L50 -20 Z" />
      

      
      <glyph glyph-name="left_inventory" unicode="&#xE001;" d="M879.2704 537.4522L557.7056 742.6163C544.9069 750.785 530.0403 755.125 514.857 755.125 499.6736 755.125 484.807 750.785 472.0083 742.6163L150.4435 537.4522C127.8771 523.0586 109.3011 503.2109 96.432 479.7414 83.5629 456.272 76.8154 429.9379 76.8128 403.1718V12.6336C76.8128-29.6128 93.5949-70.1248 123.4669-100 153.3395-129.8688 193.8554-146.656 236.1011-146.656H793.6128C835.8592-146.656 876.3712-129.8688 906.2464-100 936.1216-70.1248 952.9024-29.6128 952.9024 12.6336V403.1718C952.896 429.9379 946.1504 456.272 933.28 479.7414 920.4096 503.2109 901.8368 523.0586 879.2704 537.4522ZM193.2525 470.3123L514.857 675.4758 841.9968 466.4493C851.7184 459.0131 859.5968 449.4362 865.0176 438.4621 870.4384 427.488 873.2608 415.4118 873.2544 403.1718L873.056 6.6624C871.552-13.376 862.528-32.1024 847.7952-45.7664 833.056-59.424 813.7088-67.0144 793.6128-67.008H236.1011C213.9008-66.272 193.0266-58.0736 177.7018-41.5424 164.039-26.8096 156.4506-7.456 156.457 12.6336L156.736 409.9418C157.776 422.1331 161.6115 433.9213 167.9443 444.391 174.2771 454.8608 182.9376 463.7306 193.2525 470.3123ZM497.1264 342.9946C489.7536 349.9654 479.9974 353.8586 469.8509 353.8803H469.8112 268.231L263.5718 353.6013C253.4931 352.4026 244.2528 347.4003 237.7382 339.6173 231.2237 331.8336 227.927 321.8566 228.5216 311.7242 229.1162 301.5917 233.5578 292.0691 240.9382 285.1014 248.3187 278.1338 258.0813 274.247 268.231 274.2355H469.8112L474.4704 274.5146C484.5459 275.7126 493.7843 280.7117 500.2989 288.4909 506.8128 296.2701 510.112 306.2426 509.5226 316.3718 508.9331 326.5011 504.4992 336.0237 497.1264 342.9946ZM616.5933 143.8848C609.2198 150.8544 599.4643 154.7456 589.3178 154.7712H589.2781 268.231L263.5718 154.4896C253.4931 153.2928 244.2528 148.288 237.7382 140.5056 231.2237 132.7232 227.927 122.7456 228.5216 112.6144 229.1162 102.4832 233.5578 92.96 240.9382 85.9904 248.3187 79.0208 258.0813 75.136 268.231 75.1232H589.2781L593.9373 75.4048C604.0128 76.6016 613.2506 81.6 619.7651 89.3824 626.2797 97.1584 629.5789 107.1296 628.9894 117.2608 628.4 127.392 623.9661 136.9152 616.5933 143.8848Z"  horiz-adv-x="1024" vert-adv-y="1024"  />

      
      <glyph glyph-name="left_purchases" unicode="&#xE002;" d="M739.4418-75.5804A91.0222 91.0222 0 0 0 830.464 15.4418 91.0222 91.0222 0 0 0 921.4862-75.5804 91.0222 91.0222 0 0 0 830.464-166.6027 91.0222 91.0222 0 0 0 739.4418-75.5804ZM227.4418-75.5804A91.0222 91.0222 0 0 0 318.464 15.4418 91.0222 91.0222 0 0 0 409.4862-75.5804 91.0222 91.0222 0 0 0 318.464-166.6027 91.0222 91.0222 0 0 0 227.4987-75.5804ZM375.3529 69.0311A96.3129 96.3129 0 0 0 280.9173 147.424 9.6711 9.6711 0 0 0 280.3484 150.6667L224.7111 617.4969A1.536 1.536 0 0 1 223.4596 618.1796H110.0231A47.4453 47.4453 0 0 0 62.6347 665.568 47.5022 47.5022 0 0 0 110.0231 713.0702H223.3458A96.7111 96.7111 0 0 0 318.1796 634.6773C318.1796 633.8809 318.1796 632.6862 318.5209 631.5484L325.4613 574.6596H854.528A82.3751 82.3751 0 0 0 918.9262 543.7689 82.6596 82.6596 0 0 0 935.6516 473.9662L865.7351 145.0347A96.7111 96.7111 0 0 0 771.5271 68.7467ZM411.648 377.4827A44.2596 44.2596 0 0 1 455.9076 333.2231H697.2871A44.2596 44.2596 0 0 1 741.4329 377.4827 44.2027 44.2027 0 0 1 697.2871 421.7422H455.9076A44.2027 44.2027 0 0 1 411.4204 377.5396ZM740.0676 607.2S807.936 698.2222 825.0596 698.2222 910.7342 607.2 910.7342 607.2Z"  horiz-adv-x="1024" vert-adv-y="1024"  />

      
      <glyph glyph-name="left_archive_pro" unicode="&#xE003;" d="M807.8791-120.9209H216.2347A86.8124 86.8124 0 0 0 130.9013-32.9138V425.2124H893.2124V-32.8569A86.7556 86.7556 0 0 0 807.8791-120.9209ZM409.6569 242.8267A39.8222 39.8222 0 0 1 369.8347 203.0044 39.8222 39.8222 0 0 1 409.6569 163.1822H614.4569A39.8222 39.8222 0 0 1 654.2791 203.0044 39.8222 39.8222 0 0 1 614.4569 242.8267ZM927.3458 496.9493H96.768A28.4444 28.4444 0 0 0 68.3236 525.3938V618.6347A85.3333 85.3333 0 0 0 153.6569 703.968H870.4569A85.3333 85.3333 0 0 0 955.7902 618.6347V525.5644A28.4444 28.4444 0 0 0 927.3458 497.1769Z"  horiz-adv-x="1024" vert-adv-y="1024"  />

      
      <glyph glyph-name="left_active_pro" unicode="&#xE004;" d="M43.375 570.1626C43.375 679.7357 132.2016 768.5625 241.7747 768.5625H782.0864C891.6608 768.5625 980.4864 679.7357 980.4864 570.1626V29.8496C980.4864-79.7248 891.6608-168.5504 782.0864-168.5504H241.7747C132.2016-168.5504 43.375-79.7248 43.375 29.8496V570.1626ZM241.7747 691.7626C174.617 691.7626 120.1747 637.3203 120.1747 570.1626V29.8496C120.1747-37.3056 174.617-91.7504 241.7747-91.7504H782.0864C849.248-91.7504 903.6864-37.3056 903.6864 29.8496V570.1626C903.6864 637.3203 849.248 691.7626 782.0864 691.7626H241.7747ZM330.7962 551.8112C350.8493 558.32 372.3098 547.3549 378.8179 527.3613 397.8534 468.4781 452.7315 428.624 514.6144 428.7379 576.7078 428.7379 631.296 468.375 650.4704 527.3613 656.9792 547.3549 678.496 558.32 698.4896 551.8701 718.4832 545.4202 729.4464 523.9014 723.0016 503.849 693.6256 413.3178 609.8944 352.5146 514.672 352.5146 419.7395 352.3277 335.5494 413.4618 306.3443 503.7901 299.7773 523.785 310.7443 545.303 330.7962 551.8112ZM698.4896 71.8912H325.5187C304.4698 71.8976 287.4061 88.96 287.4061 110.0032 287.4061 131.0528 304.4698 148.1152 325.5187 148.1152H698.4896C719.5392 148.1152 736.6016 131.0528 736.6016 110.0032 736.6016 88.96 719.5392 71.8912 698.4896 71.8912Z"  horiz-adv-x="1024" vert-adv-y="1024"  />

      
      <glyph glyph-name="left_order" unicode="&#xE005;" d="M731.4432 738.8435C852.6336 738.8435 950.8736 637.4867 950.8736 512.4493V87.5264C950.8736-37.5168 852.6336-138.8736 731.4432-138.8736H292.585C171.3946-138.8736 73.1565-37.5168 73.1565 87.5264V512.4493C73.1565 637.4867 171.3946 738.8435 292.585 738.8435H731.4432ZM731.4432 659.6058H725.9584V625.6467C725.9584 591.9827 713.3184 559.6275 690.6944 535.3728 668.0704 511.1174 637.216 496.848 604.6125 495.5603L599.785 495.4694H424.2419C390.7795 495.4694 358.6867 509.1846 335.0253 533.5974 311.3638 558.0102 298.0704 591.1213 298.0704 625.6467V659.6058H292.585C255.6416 659.6064 220.1395 644.8186 193.5526 618.3546 166.9658 591.8906 151.3683 555.8157 150.0442 517.7242L149.9565 512.4493V87.5264C149.9552 49.408 164.2886 12.7808 189.9379-14.6496 215.5878-42.08 250.553-58.176 287.472-59.5392L292.585-59.6352H731.4432C768.384-59.6352 803.8848-44.8448 830.4768-18.3808 857.0624 8.0832 872.6592 44.16 873.984 82.2464L874.0736 87.5264V512.4493C874.0736 550.5651 859.7376 587.1942 834.0864 614.6253 808.4416 642.0563 773.472 658.1491 736.5568 659.5149L731.4432 659.6058ZM657.1456 334.6842C663.4048 328.4141 667.1808 319.9622 667.7376 310.9754 668.288 301.9891 665.5744 293.1123 660.128 286.0774L657.888 283.4739 516.841 133.5104C511.0272 127.328 503.2678 123.4816 494.9549 122.6688 486.6426 121.856 478.3213 124.128 471.4848 129.0752L468.7642 131.2704 368.441 220.151C361.5238 226.192 357.1386 234.7584 356.2029 244.0589 355.2672 253.3587 357.8528 262.672 363.4195 270.0506 368.9862 277.4285 377.1027 282.3002 386.071 283.6454 395.0387 284.9914 404.1638 282.7072 411.5373 277.2704L414.2138 275.12 489.456 208.4467 607.5085 333.9142C613.993 340.8058 622.864 344.7578 632.1715 344.9024 641.4784 345.0464 650.464 341.3709 657.1456 334.6842ZM649.1584 653.9456H374.8704V625.6467C374.8691 612.7392 379.6166 600.3123 388.1542 590.8781 396.6912 581.4432 408.3821 575.7043 420.8627 574.8211L424.2419 574.7078H599.785C612.8787 574.7078 625.4368 580.0742 634.6957 589.6275 643.9552 599.1802 649.1584 612.137 649.1584 625.6467V653.9456Z"  horiz-adv-x="1024" vert-adv-y="1024"  />

      
      <glyph glyph-name="left_suppliers" unicode="&#xE006;" d="M540.3876-98.2222A28.4444 28.4444 0 0 0 511.9431-69.7778V271.5556A28.4444 28.4444 0 0 0 540.3876 300H938.6098A28.4444 28.4444 0 0 0 967.0542 271.5556V-69.7778A28.4444 28.4444 0 0 0 938.6098-98.2222ZM648.4764 186.2222A28.4444 28.4444 0 0 1 676.9209 157.7778H802.0764A28.4444 28.4444 0 0 1 830.5209 186.2222 28.4444 28.4444 0 0 1 802.0764 214.6667H676.9209A28.4444 28.4444 0 0 1 648.4764 186.2222ZM455.0542-41.3333H113.7209A56.8889 56.8889 0 0 0 56.832 15.5556V72.4444A284.8996 284.8996 0 0 0 336.5547 356.8889 170.6667 170.6667 0 0 0 170.6098 527.5556 170.6667 170.6667 0 0 0 341.2764 698.2222 170.6667 170.6667 0 0 0 511.9431 527.5556 170.6667 170.6667 0 0 0 346.112 356.8889 281.7707 281.7707 0 0 0 463.2462 329.4684 57.344 57.344 0 0 1 455.0542 300V-41.3333Z"  horiz-adv-x="1024" vert-adv-y="1024"  />

      
      <glyph glyph-name="left_shipment" unicode="&#xE007;" d="M267.216 121.6256C263.0278 109.6832 260.7501 96.8576 260.7501 83.5008 260.7501 19.8336 312.5472-31.9616 376.215-31.9616 439.8822-31.9616 491.6794 19.8336 491.6794 83.5008 491.6794 96.8576 489.4016 109.6832 485.2134 121.6256H396.624C410.2067 114.3232 419.4618 99.9744 419.4618 83.5008 419.4618 59.6544 400.0614 40.256 376.215 40.256 352.368 40.256 332.9677 59.6544 332.9677 83.5008 332.9677 99.9744 342.2227 114.3232 355.8054 121.6256H267.216ZM687.0912 121.6256C682.9056 109.6832 680.6272 96.8576 680.6272 83.5008 680.6272 19.8336 732.4224-31.9616 796.0896-31.9616 859.7568-31.9616 911.552 19.8336 911.552 83.5008 911.552 96.8576 909.2736 109.6832 905.088 121.6256H816.4992C830.08 114.3232 839.3344 99.9744 839.3344 83.5008 839.3344 59.6544 819.936 40.256 796.0896 40.256 772.2432 40.256 752.8448 59.6544 752.8448 83.5008 752.8448 99.9744 762.0992 114.3232 775.68 121.6256H687.0912ZM50.0138 212.3667C26.8214 212.3667 8.0625 231.177 8.0625 254.3437 8.0625 277.5616 26.8214 296.3206 50.0138 296.3206H340.569C363.7613 296.3206 382.6483 277.5616 382.6483 254.3437 382.6483 231.177 363.7613 212.3667 340.569 212.3667H50.0138ZM78.6125 342.8288C55.4201 342.8288 36.6612 361.5878 36.6612 384.7546 36.6612 407.9725 55.4201 426.7315 78.6125 426.7315H362.0211C385.2134 426.7315 404.1005 407.9725 404.1005 384.7546 404.1005 361.5878 385.2134 342.8288 362.0211 342.8288H78.6125ZM127.5827 475.401C104.3904 475.401 85.5034 494.16 85.5034 517.4803 85.5034 540.5446 104.3904 559.4061 127.5827 559.4061H410.9907C434.183 559.4061 452.9421 540.5446 452.9421 517.4803 452.9421 494.16 434.183 475.401 410.9907 475.401H127.5827ZM231.1904 601.1046C231.1904 608.841 237.4579 615.1373 245.2486 615.1373H580.8045C617.5776 615.1373 647.3472 585.369 647.3472 548.6208V393.1341C647.3472 371.9264 664.5376 354.7341 685.7472 354.7341H941.5488V170.6752C941.5488 162.8864 935.328 156.64 927.488 156.64H192.7904C184.9126 156.64 178.7066 162.8992 178.7066 170.6752V223.4688H101.9066V170.6752C101.9066 120.4352 142.5459 79.84 192.7904 79.84H927.488C977.7216 79.84 1018.3488 120.448 1018.3488 170.6752V393.1341C1018.3488 414.3418 1001.152 431.5341 979.9488 431.5341H724.1472V548.6208C724.1472 627.8086 659.968 691.9373 580.8045 691.9373H245.2486C194.969 691.9373 154.3904 651.1827 154.3904 601.1046V544.4685H231.1904V601.1046ZM646.8096 607.7498L648.0064 418.3258C648.2304 383.1379 676.8192 354.7296 712.0064 354.7296H992.704L886.624 553.1642C884.3904 557.1904 882.272 561.3306 880.16 565.4445 869.1328 586.9581 858.4704 607.7498 834.144 607.7498H646.8096ZM724.096 530.9498L724.7296 431.5296H864.5632L819.1552 516.4691C816.9408 520.48 814.944 524.3328 813.28 527.5661 812.672 528.743 812.1344 529.7958 811.6288 530.7718L811.5392 530.9498H724.096Z"  horiz-adv-x="1024" vert-adv-y="1024"  />

      
      <glyph glyph-name="creat_batch" unicode="&#xE008;" d="M134.7291-99.1406A224.9143 224.9143 0 0 0 69.5589 66.9669V542.3954A236.4709 236.4709 0 0 0 304.3474 772.1371L649.3623 772.7954H659.3097A43.008 43.008 0 0 0 687.0309 761.7509L943.0309 495.4377A29.2571 29.2571 0 0 0 954.1486 467.7897V67.1131A232.5211 232.5211 0 0 0 729.6731-172.576L299.1543-173.3806A247.2229 247.2229 0 0 0 134.7291-99.1406ZM304.3474 689.632A147.8949 147.8949 0 0 1 152.3566 542.688V66.7474A150.528 150.528 0 0 1 299.3006-90.2903L729.6731-89.632A152.1371 152.1371 0 0 1 871.7166 67.1131V414.2491H774.8754A172.1051 172.1051 0 0 0 605.5497 588.6217V690.3634ZM688.2011 583.5017A86.7474 86.7474 0 0 1 774.9486 496.8274H826.5874L688.2743 639.8217ZM479.0857 133.7463V236.1463H376.6857A38.0343 38.0343 0 0 0 336.5303 272.7177 35.4743 35.4743 0 0 0 376.6857 309.2891H479.0857V404.3749A38.0343 38.0343 0 0 0 515.6571 444.5303 35.328 35.328 0 0 0 552.2286 404.3749V309.2891H647.3143A37.9611 37.9611 0 0 0 687.4697 272.7177 37.9611 37.9611 0 0 0 647.3143 236.1463H552.2286V133.7463A38.0343 38.0343 0 0 0 515.6571 93.5909 38.0343 38.0343 0 0 0 479.0857 133.7463Z"  horiz-adv-x="1024" vert-adv-y="1024"  />

      
      <glyph glyph-name="ship_batch" unicode="&#xE009;" d="M240.5669-180.9874A228.2057 228.2057 0 0 0 12.6537 47.072V514.1623A92.9646 92.9646 0 0 0 17.7006 544.8823L17.7006 545.9063 18.2126 546.5646C31.0857 566.6057 44.9829 592.6446 59.8309 619.7074A559.2503 559.2503 0 0 0 146.2126 753.12 220.672 220.672 0 0 0 305.8834 799.1269H699.1726C702.6103 799.1269 705.9017 799.1269 709.12 799.1269A182.8571 182.8571 0 0 0 856.2103 753.8514 1272.6857 1272.6857 0 0 0 986.9897 547.2229L986.9897 546.0526A95.9634 95.9634 0 0 0 992.4023 514.1623V46.7063A228.2789 228.2789 0 0 0 764.4891-181.3531ZM102.2537 47.072A138.3863 138.3863 0 0 1 240.5669-91.2411H765.0011A138.3863 138.3863 0 0 1 903.3143 47.072V481.9794H102.3269ZM872.5211 569.7509A843.9954 843.9954 0 0 1 797.3303 686.7794C771.8766 707.6251 766.976 709.8926 709.5589 709.8926H307.2731C242.9074 708.1371 228.5714 704.6994 204.8731 685.7554A687.5429 687.5429 0 0 1 138.6057 577.6503L134.5097 570.336ZM559.9086 90.6651L619.3737 150.0571H377.1246V237.8286H619.5931L559.9817 297.3669 622.0069 359.4651 787.6023 193.8697 622.0069 28.4937Z"  horiz-adv-x="1024" vert-adv-y="1024"  />

      
      <glyph glyph-name="tag_batch" unicode="&#xE00A;" d="M618.4229 761.824H762.7337C942.9577 761.824 974.848 691.68 974.848 544.2971V390.1851A190.1714 190.1714 0 0 0 895.1954 219.6891L537.1611-130.5189A126.1714 126.1714 0 0 0 371.2-130.5189L83.1634 149.7646A118.0526 118.0526 0 0 0 83.6023 315.6526L400.9691 638.0663C473.8926 709.8194 526.6286 761.824 618.4229 761.824ZM454.0709-78.5143A34.4503 34.4503 0 0 1 477.9886-69.9566L836.0229 280.2514C890.0754 332.6949 890.0754 337.0103 890.0754 389.9657V544.0777C890.0754 661.9109 882.7611 676.9051 762.8069 676.9051H618.4229C563.712 676.9051 530.6514 646.4046 460.4343 577.4309L431.1771 548.832 143.1406 255.2366A31.8171 31.8171 0 0 1 133.9246 232.0503 30.2811 30.2811 0 0 1 142.0434 210.1074L430.08-70.176A34.304 34.304 0 0 1 453.9977-78.5143ZM675.84 585.2571A112.4206 112.4206 0 1 0 563.4194 472.8366 112.5669 112.5669 0 0 0 675.6937 585.2571ZM675.84 445.1154A27.7211 27.7211 0 1 1 648.1189 472.8366 27.7211 27.7211 0 0 1 675.6937 445.3349Z"  horiz-adv-x="1024" vert-adv-y="1024"  />

      
      <glyph glyph-name="map_batch" unicode="&#xE00B;" d="M389.4857-151.6571H388.9737A308.6629 308.6629 0 0 0 169.0331-60.6674 312.9783 312.9783 0 0 0 169.0331 379.872L169.0331 379.872A46.8114 46.8114 0 0 0 201.0697 392.3063 45.9337 45.9337 0 0 0 233.984 378.5554 46.592 46.592 0 0 0 235.1543 313.6777 217.8926 217.8926 0 0 1 235.8126 5.7463 216.2103 216.2103 0 0 1 389.4126-57.6686 216.1371 216.1371 0 0 1 543.5246 6.2583 218.112 218.112 0 0 1 543.5246 314.0434S543.5246 314.0434 543.5246 314.0434A46.2994 46.2994 0 0 0 544.6949 378.7749 46.2994 46.2994 0 0 0 577.7554 392.4526 46.592 46.592 0 0 0 609.5726 380.0183L609.5726 380.0183A312.9783 312.9783 0 0 0 609.5726-61.0331 310.6377 310.6377 0 0 0 390.7291-152.0229ZM430.0069 200.3063A323.584 323.584 0 0 0 430.8846 657.0103 321.3897 321.3897 0 0 0 659.0171 751.2183 320.6583 320.6583 0 0 0 887.5154 656.1326 323.2183 323.2183 0 0 0 887.5154 199.4286S887.5154 199.4286 887.5154 199.4286A48.128 48.128 0 0 0 854.4549 186.4823 46.8846 46.8846 0 0 0 821.3943 200.16 47.2503 47.2503 0 0 0 821.3943 265.9886 227.5474 227.5474 0 0 1 888.832 428.512 228.6446 228.6446 0 0 1 821.76 590.8891 228.4251 228.4251 0 0 1 659.1634 658.1806 228.4251 228.4251 0 0 1 496.64 590.8891 228.1326 228.1326 0 0 1 429.4949 428.512 228.7909 228.7909 0 0 1 496.64 266.1349 46.592 46.592 0 0 0 509.952 220.64 46.592 46.592 0 0 0 476.3794 186.9211 46.8114 46.8114 0 0 0 464.7497 185.4583 46.9577 46.9577 0 0 0 430.0069 200.5257Z"  horiz-adv-x="1024" vert-adv-y="1024"  />

      
      <glyph glyph-name="mark_print_batch" unicode="&#xE00C;" d="M146.3589-182.6697A146.2857 146.2857 0 0 0 0.0731-36.384V256.1874A146.2857 146.2857 0 0 0 146.3589 402.4731H146.3589V621.9017A160.9143 160.9143 0 0 0 307.2731 782.816H716.8731A160.9143 160.9143 0 0 0 877.7874 621.9017V402.4731H877.7874A146.2857 146.2857 0 0 0 1024.0731 256.1874V183.0446H936.3017V256.1874A58.5143 58.5143 0 0 1 877.7874 314.7017H146.3589A58.5143 58.5143 0 0 1 87.8446 256.1874V-36.384A58.5143 58.5143 0 0 1 146.3589-94.8983H585.216V-182.6697ZM790.016 402.4731V621.9017A73.1429 73.1429 0 0 1 716.8731 695.0446H307.2731A73.1429 73.1429 0 0 1 234.1303 621.9017V402.4731ZM773.632-128.032A26.9166 26.9166 0 0 0 771.6571-125.9109L680.5943-34.848A43.8857 43.8857 0 0 0 680.5943 27.104 43.8857 43.8857 0 0 0 742.5463 27.104L804.6446-34.9211 918.3817 78.8891A43.8857 43.8857 0 0 0 980.48 78.8891 43.8857 43.8857 0 0 0 980.48 16.7177L835.7303-128.032A43.8857 43.8857 0 0 0 804.6446-140.7589 43.8857 43.8857 0 0 0 773.2663-128.1051ZM409.7463 505.0194A43.8857 43.8857 0 0 0 365.8606 548.9051 43.8857 43.8857 0 0 0 409.7463 592.7909H614.5463A43.8857 43.8857 0 0 0 658.432 548.9051 43.8857 43.8857 0 0 0 614.5463 505.0194Z"  horiz-adv-x="1024" vert-adv-y="1024"  />

      
      <glyph glyph-name="print_batch" unicode="&#xE00D;" d="M146.3589-182.7429A146.2857 146.2857 0 0 0 0.0731-36.4571V256.1143A146.2857 146.2857 0 0 0 146.3589 402.4V621.8286A160.9143 160.9143 0 0 0 307.2731 782.7429H716.8731A160.9143 160.9143 0 0 0 877.7874 621.8286V402.4A146.2857 146.2857 0 0 0 1024.0731 256.1143V-36.4571A146.2857 146.2857 0 0 0 877.7874-182.7429ZM87.8446 256.1143V-36.4571A58.5143 58.5143 0 0 1 146.3589-94.9714H877.7874A58.5143 58.5143 0 0 1 936.3017-36.4571V256.1143A58.5143 58.5143 0 0 1 877.7874 314.6286H146.3589A58.5143 58.5143 0 0 1 87.7714 256.0411ZM790.016 402.4V621.8286A73.1429 73.1429 0 0 1 716.8731 694.9714H307.2731A73.1429 73.1429 0 0 1 234.1303 621.8286V402.4ZM702.2446 73.2571A43.8857 43.8857 0 0 0 658.3589 117.1429 43.8857 43.8857 0 0 0 702.2446 161.0286H760.7589A43.8857 43.8857 0 0 0 804.6446 117.1429 43.8857 43.8857 0 0 0 760.7589 73.2571ZM409.6731 504.8A43.8857 43.8857 0 0 0 365.7874 548.6857 43.8857 43.8857 0 0 0 409.6731 592.5714H614.4731A43.8857 43.8857 0 0 0 658.3589 548.6857 43.8857 43.8857 0 0 0 614.4731 504.8Z"  horiz-adv-x="1024" vert-adv-y="1024"  />

      
      <glyph glyph-name="data_details" unicode="&#xE00E;" d="M463.104 73.568L101.248 435.808A64 64 0 0 0 101.248 526.304 64 64 0 0 0 191.744 526.304L508.416 209.248 825.088 526.304A64 64 0 0 0 915.84 526.304 64 64 0 0 0 915.84 435.808L553.728 73.568A64 64 0 0 0 508.416 54.88 64 64 0 0 0 463.104 73.568Z"  horiz-adv-x="1024" vert-adv-y="1024"  />

      
      <glyph glyph-name="arrow_sq_list" unicode="&#xE00F;" d="M511.5365 812A511.5365 511.5365 0 0 0 1023.0731 300.4635 511.5365 511.5365 0 0 0 511.5365-211.0731 511.5365 511.5365 0 0 0 0 300.4635 511.5365 511.5365 0 0 0 511.5365 812ZM511.5365 738.9234A438.8983 438.8983 0 0 1 73.0766 300.4635 439.0445 439.0445 0 0 1 511.5365-137.9964 439.0445 439.0445 0 0 1 949.9964 300.4635 438.8983 438.8983 0 0 1 511.5365 738.9234ZM408.2062 166.9524L537.3326 296.0789 408.2062 425.2053A36.5383 36.5383 0 0 0 408.2062 476.9436 36.5383 36.5383 0 0 0 459.7983 476.9436L614.8669 322.0211A37.1229 37.1229 0 0 0 625.6092 296.0789 36.5383 36.5383 0 0 0 614.8669 270.2828L459.7983 115.2142A36.5383 36.5383 0 0 0 434.0022 104.4719 36.5383 36.5383 0 0 0 408.2062 115.2142 36.5383 36.5383 0 0 0 397.4639 141.0102 36.5383 36.5383 0 0 0 408.2792 166.8793Z"  horiz-adv-x="1023" vert-adv-y="1024"  />

      
      <glyph glyph-name="arrow_zk_list" unicode="&#xE010;" d="M511.5365 812A511.5365 511.5365 0 0 0 1023.0731 300.4635 511.5365 511.5365 0 0 0 511.5365-211.0731 511.5365 511.5365 0 0 0 0 300.4635 511.5365 511.5365 0 0 0 511.5365 812ZM511.5365 738.9234A438.8983 438.8983 0 0 1 73.0766 300.4635 439.0445 439.0445 0 0 1 511.5365-137.9964 439.0445 439.0445 0 0 1 949.9964 300.4635 438.8983 438.8983 0 0 1 511.5365 738.9234ZM330.6718 399.4092A36.5383 36.5383 0 0 0 382.2639 399.4092L511.5365 270.2828 640.663 399.4092A36.5383 36.5383 0 0 0 692.4012 399.4092 36.5383 36.5383 0 0 0 692.4012 347.8171L537.3326 192.7485A36.5383 36.5383 0 0 0 511.5365 182.0062 36.5383 36.5383 0 0 0 485.5943 192.7485L330.6718 347.8171A36.5383 36.5383 0 0 0 319.9296 373.6132 36.5383 36.5383 0 0 0 330.7449 399.3362Z"  horiz-adv-x="1023" vert-adv-y="1024"  />

      
      <glyph glyph-name="delete_tag" unicode="&#xE011;" d="M674.944 28.384L512 191.328 349.056 28.384A76.8 76.8 0 0 0 240.384 28.384 76.8 76.8 0 0 0 240.384 137.056L403.328 300 240.384 462.944A76.8 76.8 0 0 0 240.384 571.488 76.8 76.8 0 0 0 348.928 571.488L511.872 408.544 674.816 571.488A76.8 76.8 0 0 0 783.488 571.488 76.8 76.8 0 0 0 783.488 462.816L620.544 299.872 783.488 136.928A76.8 76.8 0 0 0 783.488 28.256 76.8 76.8 0 0 0 729.088 5.728 76.8 76.8 0 0 0 674.944 28.384Z"  horiz-adv-x="1024" vert-adv-y="1024"  />

      
      <glyph glyph-name="edit_list_12" unicode="&#xE012;" d="M383.8954-131.3234C380.19-131.36 376.4933-130.8626 372.913-129.8971 368.8777-130.1458 364.7795-130.1458 360.6367-129.8606L126.1363-125.9694C103.4935-125.8231 85.1814-107.5008 85.0205-84.8558L81.2976 149.2087C80.7973 189.6055 96.6188 228.4626 125.1723 257.0337L566.2347 698.0698C587.5112 719.4977 616.5029 731.4624 646.6904 731.2839 676.4471 731.2839 705.024 719.5694 726.1989 698.6768 726.1989 698.6768 726.5638 698.6768 726.7906 698.1049L909.6485 515.2477C930.9842 494.1051 942.9431 465.2838 942.848 435.2477 942.9943 405.1765 931.0281 376.3195 909.6558 355.1768L511.8237-42.8571H878.2702C902.5097-42.8571 922.1559-62.5033 922.1559-86.7502 922.1559-111.0043 902.5097-130.6432 878.2702-130.6432L383.8954-131.3234ZM183.9938 197.8194C171.4403 185.2484 164.5202 168.141 164.8238 150.4302L167.9045-43.6837 362.8332-46.8215C380.2792-46.8215 397.0114-39.8949 409.3506-27.5703L715.1616 278.248 489.7346 503.6765 183.9938 197.8194ZM625.0474 638.8555L548.7616 562.498 774.1879 337.0695 850.4759 413.4263C856.0494 419.0693 859.1726 426.6768 859.1799 434.5697 859.2091 442.4984 856.0713 450.1052 850.4686 455.6765L667.618 638.5695C662.0445 644.2125 654.4669 647.3554 646.547 647.3905 638.3419 647.7482 630.3598 644.6769 624.5471 638.8555H625.0474Z"  horiz-adv-x="1024" vert-adv-y="1024"  />

      
      <glyph glyph-name="info_list_12" unicode="&#xE013;" d="M511.9147-212A512.512 512.512 0 0 0-0.0853 300 512.512 512.512 0 0 0 511.9147 812 512.512 512.512 0 0 0 1023.9147 300 512.5973 512.5973 0 0 0 511.9147-212ZM438.3573 334.1333V-39.0293H587.776V334.1333ZM436.0533 615.7333V466.4853H585.3013V615.7333Z"  horiz-adv-x="1024" vert-adv-y="1024"  />

      
      <glyph glyph-name="tips_warning" unicode="&#xE014;" d="M512.032-211.936A512.544 512.544 0 0 0 0.064 300.032 512.544 512.544 0 0 0 512.032 812 512.544 512.544 0 0 0 1024 300.032 512.608 512.608 0 0 0 512.032-211.936ZM438.5646 138.5701V-10.7966H587.8673V138.5701ZM510.9441 615.2123A74.7473 74.7473 0 0 1 436.3247 540.529V316.543A74.6833 74.6833 0 0 1 510.9441 241.9236 74.6833 74.6833 0 0 1 585.5634 316.543V540.529A74.7473 74.7473 0 0 1 510.8801 615.2123Z"  horiz-adv-x="1024" vert-adv-y="1024"  />

      
      <glyph glyph-name="more_channel" unicode="&#xE015;" d="M768 300A85.3333 85.3333 0 1 0 853.3333 214.6667 85.3333 85.3333 0 0 0 768 300ZM426.6667 300A85.3333 85.3333 0 1 0 512 214.6667 85.3333 85.3333 0 0 0 426.6667 300ZM85.3333 300A85.3333 85.3333 0 1 0 170.6667 214.6667 85.3333 85.3333 0 0 0 85.3333 300Z"  horiz-adv-x="1024" vert-adv-y="1024"  />

      
      <glyph glyph-name="label_list" unicode="&#xE016;" d="M74.56 50.528L72 558.944A232.64 232.64 0 0 0 302.976 784.864L648.064 785.568H658.112A37.952 37.952 0 0 0 683.2 775.52L939.2 509.472A26.24 26.24 0 0 0 949.248 484.256L951.744 51.168A229.376 229.376 0 0 0 730.816-184.864L300.352-185.632A233.728 233.728 0 0 0 74.56 50.528ZM302.976 709.728A152.192 152.192 0 0 1 147.392 559.072L149.824 50.656A153.6 153.6 0 0 1 300.48-109.984L730.944-109.408A155.84 155.84 0 0 1 876.544 51.36L873.92 434.144H773.632A168.32 168.32 0 0 0 608 604.96V710.432ZM683.2 599.904A89.984 89.984 0 0 1 773.568 509.536H833.856L683.2 665.248ZM367.616 79.904A39.616 39.616 0 0 0 327.488 120.096 37.056 37.056 0 0 0 367.616 160.416H638.72A39.744 39.744 0 0 0 678.976 120.096 39.68 39.68 0 0 0 638.72 79.904ZM366.912 313.632A39.552 39.552 0 0 0 326.784 353.76 36.928 36.928 0 0 0 366.912 393.952H537.6A39.616 39.616 0 0 0 577.728 353.76 41.024 41.024 0 0 0 532.544 313.632Z"  horiz-adv-x="1024" vert-adv-y="1024"  />

      
      <glyph glyph-name="add_btn" unicode="&#xE017;" d="M468.1143-116.9143V256.1143H95.0857V343.8857H468.1143V716.9143H555.8857V343.8857H928.9143V256.1143H555.8857V-116.9143Z"  horiz-adv-x="1024" vert-adv-y="1024"  />

      
      <glyph glyph-name="stock_count_btn" unicode="&#xE018;" d="M237.3486 746.0983H750.8846A102.4 102.4 0 0 0 825.4171 715.1589L930.8891 602.08A80.8229 80.8229 0 0 0 953.5634 545.9794V453.8926A41.984 41.984 0 0 0 908.5074 409.3486 41.3257 41.3257 0 0 0 863.9634 453.8926C864.4023 506.1897 864.4754 473.3486 864.4754 500.9966H121.7097L120.7589-15.6846S120.7589-16.4891 120.7589-16.6354A21.9429 21.9429 0 0 1 125.0743-32.4343 17.4811 17.4811 0 0 1 138.0937-36.5303H384.2926A40.5943 40.5943 0 0 0 430.3726-78.5143 42.4229 42.4229 0 0 0 384.2926-119.9863H132.9006A95.5977 95.5977 0 0 0 34.5966-15.6114V545.9794A82.1394 82.1394 0 0 0 57.4171 602.2263C181.3211 734.8343 208.4571 746.0983 237.3486 746.0983ZM820.1509 588.9874L759.4423 654.0846 758.9303 654.6697C755.5657 658.6926 753.2251 658.6926 751.616 658.6926A23.6251 23.6251 0 0 1 748.544 658.6926 30.3543 30.3543 0 0 0 744.448 658.6926H230.1074A6.144 6.144 0 0 1 225.4263 656.352L165.3029 589.4994ZM696.6126 404.96A258.9989 258.9989 0 0 0 955.6114 146.4731 255.5611 255.5611 0 0 0 916.2606 9.4766L973.0926-46.9166 973.0926-46.9166A58.5143 58.5143 0 0 0 970.4594-129.9337 58.5143 58.5143 0 0 0 890.5874-129.9337L890.5874-129.9337 833.6091-73.3943A258.7794 258.7794 0 1 0 696.6126 405.0331ZM694.5646-23.8766A167.7897 167.7897 0 0 1 863.5246 136.672 164.2789 164.2789 0 0 1 818.2491 259.9909 168.2286 168.2286 0 0 1 695.808 316.6034L688.4937 316.6034A161.4263 161.4263 0 0 1 526.9943 151.5931 178.3223 178.3223 0 0 1 694.6377-23.8766Z"  horiz-adv-x="1024" vert-adv-y="1024"  />

      
      <glyph glyph-name="back_drawer" unicode="&#xE019;" d="M448.704-116.32L68.544 263.84A51.2 51.2 0 0 0 68.544 336.224L70.656 338.208 448.832 716.384A51.2 51.2 0 0 0 521.216 716.384 51.2 51.2 0 0 0 521.216 644L228.416 351.2H919.616A51.2 51.2 0 0 0 970.816 300 51.2 51.2 0 0 0 919.616 248.8H228.736L521.472-43.872A51.2 51.2 0 0 0 521.472-116.192 51.2 51.2 0 0 0 485.312-131.232 51.2 51.2 0 0 0 448.704-116.32Z"  horiz-adv-x="1024" vert-adv-y="1024"  />

      
      <glyph glyph-name="close_tag" unicode="&#xE01A;" d="M149.888-61.984A76.8 76.8 0 0 0 149.888 46.688L403.328 300 149.888 553.44A76.8 76.8 0 0 0 149.888 662.112 76.8 76.8 0 0 0 258.56 662.112L511.872 408.8 765.312 662.112A76.8 76.8 0 0 0 873.984 662.112 76.8 76.8 0 0 0 873.984 553.44L620.672 300 873.984 46.688A76.8 76.8 0 0 0 873.984-61.984 76.8 76.8 0 0 0 765.312-61.984L511.872 191.456 258.56-61.984A76.8 76.8 0 0 0 204.16-84.512 76.8 76.8 0 0 0 149.888-61.984Z"  horiz-adv-x="1024" vert-adv-y="1024"  />

      
      <glyph glyph-name="add_product_img" unicode="&#xE01B;" d="M448-212V236H0V364H448V812H576V364H1024V236H576V-212Z"  horiz-adv-x="1024" vert-adv-y="1024"  />

      
      <glyph glyph-name="close_drawer" unicode="&#xE01C;" d="M846.848-107.36L512 227.488 177.152-107.36A51.2 51.2 0 0 0 104.64-107.36 51.2 51.2 0 0 0 104.64-34.976L439.488 299.936 104.64 634.784A51.2 51.2 0 0 0 104.64 707.296 51.2 51.2 0 0 0 177.152 707.296L512 372.448 846.848 707.296A51.2 51.2 0 0 0 919.296 707.296 51.2 51.2 0 0 0 919.296 634.784L584.448 299.936 919.296-34.912A51.2 51.2 0 0 0 919.296-107.424 51.2 51.2 0 0 0 883.072-122.4 51.2 51.2 0 0 0 846.848-107.36Z"  horiz-adv-x="1024" vert-adv-y="1024"  />

      
      <glyph glyph-name="email_address" unicode="&#xE01D;" d="M165.504-93.728A129.664 129.664 0 0 0 35.904 36V564.576A129.6 129.6 0 0 0 165.504 694.176H858.56A129.536 129.536 0 0 0 988.16 564.576V36A129.664 129.664 0 0 0 858.56-93.728ZM112.192 36A53.44 53.44 0 0 1 165.504-17.44H858.56A53.376 53.376 0 0 1 911.872 36V417.184L552.256 241.696A98.752 98.752 0 0 0 465.216 241.696L112.128 413.984ZM498.88 310.24A22.208 22.208 0 0 1 518.848 310.24L911.936 502.24V564.832A53.376 53.376 0 0 1 858.624 618.144H165.568A53.376 53.376 0 0 1 112.256 564.832V499.104Z"  horiz-adv-x="1024" vert-adv-y="1024"  />

      
      <glyph glyph-name="gps_address" unicode="&#xE01F;" d="M503.168-172.256A38.4 38.4 0 0 0 479.552-164.128C219.392 39.072 92.864 211.168 92.864 361.888A410.304 410.304 0 1 0 913.472 361.888C913.472 211.168 787.008 39.136 526.784-164.128A38.4 38.4 0 0 0 503.168-172.256ZM503.168 695.392A333.888 333.888 0 0 1 169.664 361.888C169.664 242.336 281.856 92.064 503.168-84.896 724.48 92.064 836.672 242.336 836.672 361.888A333.888 333.888 0 0 1 503.168 695.392ZM503.168 199.584A162.304 162.304 0 1 0 665.472 361.888 162.496 162.496 0 0 0 503.168 199.584ZM503.168 447.456A85.504 85.504 0 1 1 588.672 361.952 85.632 85.632 0 0 1 503.168 447.456Z"  horiz-adv-x="1024" vert-adv-y="1024"  />

      
      <glyph glyph-name="edit_list_16" unicode="&#xE020;" d="M357.184-140.64L117.184-136.736A42.496 42.496 0 0 0 75.136-94.688L71.168 145.12A153.6 153.6 0 0 0 115.968 255.52L567.552 707.104A115.968 115.968 0 0 0 730.944 707.68L731.648 707.104 919.168 519.52A115.84 115.84 0 0 0 919.168 355.616L512.768-50.72H889.92A44.8 44.8 0 1 0 889.92-140.32H357.184ZM176.32 195.168A67.392 67.392 0 0 1 156.608 146.656L159.808-51.744 359.36-54.944A66.752 66.752 0 0 1 406.976-35.232L720.128 277.472 489.408 508.192ZM627.968 646.688L549.888 568.608 780.608 337.824 858.368 415.968A30.848 30.848 0 0 1 867.328 437.6 30.336 30.336 0 0 1 858.368 459.424L671.104 646.688A30.592 30.592 0 0 1 627.904 646.688Z"  horiz-adv-x="1024" vert-adv-y="1024"  />

      
      <glyph glyph-name="info_out_line_tips" unicode="&#xE021;" d="M0 300A512 512 0 0 0 512 812 512 512 0 0 0 1024 300 512 512 0 0 0 512-212 512 512 0 0 0 0 300ZM87.7714 300A424.8137 424.8137 0 0 1 512-124.2286 424.7406 424.7406 0 0 1 936.2286 300 424.7406 424.7406 0 0 1 512 724.2286 424.8137 424.8137 0 0 1 87.7714 300ZM468.1143 44V409.7143H555.8857V44ZM468.1143 482.8571V556H555.8857V482.8571Z"  horiz-adv-x="1024" vert-adv-y="1024"  />

      
      <glyph glyph-name="description_product" unicode="&#xE022;" d="M181.9307-187.936A130.5031 130.5031 0 0 0 51.5413-57.6036V657.5467A130.8444 130.8444 0 0 0 181.9307 787.9929H704.5689A75.2071 75.2071 0 0 0 761.4578 762.2791L954.0267 542.2329A75.4347 75.4347 0 0 0 972.6293 492.5689V-57.6036A130.5031 130.5031 0 0 0 842.24-187.936ZM119.8649 657.6036V-57.5467A62.1227 62.1227 0 0 1 181.9307-119.6124H841.8418A62.2364 62.2364 0 0 1 904.0213-57.5467V492.6258A7.5662 7.5662 0 0 1 902.2578 497.3476L709.6889 717.3938A7.0542 7.0542 0 0 1 704.2844 719.7831H181.6462A62.1796 62.1796 0 0 1 119.8649 657.5467ZM347.0222 157.7778A34.1333 34.1333 0 0 0 312.8889 191.9111 34.1333 34.1333 0 0 0 347.0222 226.0444H676.9778A34.1333 34.1333 0 0 0 711.1111 191.9111 34.1333 34.1333 0 0 0 676.9778 157.7778ZM347.0222 385.3333A34.1333 34.1333 0 0 0 312.8889 419.4667 34.1333 34.1333 0 0 0 347.0222 453.6H676.9778A34.1333 34.1333 0 0 0 711.1111 419.4667 34.1333 34.1333 0 0 0 676.9778 385.3333Z"  horiz-adv-x="1024" vert-adv-y="1024"  />

      
      <glyph glyph-name="listing_product" unicode="&#xE023;" d="M193.4222-194.9333A153.6 153.6 0 0 0 39.8222-41.3333V584.4444A153.6 153.6 0 0 0 193.4222 738.0444H316.3591A91.0222 91.0222 0 0 0 398.2222 789.2444H625.7778A91.0222 91.0222 0 0 0 707.6409 738.0444H830.6347A153.6 153.6 0 0 0 984.2347 584.4444V-41.3333A153.6 153.6 0 0 0 830.6347-194.9333ZM108.0889 584.4444V-41.3333A85.3333 85.3333 0 0 1 193.4222-126.6667H830.5778A85.3333 85.3333 0 0 1 915.9111-41.3333V584.4444A85.3333 85.3333 0 0 1 830.5778 669.7778H716.8V664.0889A91.0222 91.0222 0 0 0 625.7778 573.0667H398.2222A91.0222 91.0222 0 0 0 307.2 664.0889V669.7778H193.4222A85.3333 85.3333 0 0 1 108.1458 584.4444ZM375.4667 698.2222V664.0889A22.7556 22.7556 0 0 1 398.2222 641.3333H625.7778A22.7556 22.7556 0 0 1 648.5333 664.0889V698.2222A22.7556 22.7556 0 0 1 625.7778 720.9778H398.2222A22.7556 22.7556 0 0 1 375.4098 698.2222ZM329.9556 100.8889A34.1333 34.1333 0 0 0 295.8222 135.0222 34.1333 34.1333 0 0 0 329.9556 169.1556H694.0444A34.1333 34.1333 0 0 0 728.1778 135.0222 34.1333 34.1333 0 0 0 694.0444 100.8889ZM329.9556 328.4444A34.1333 34.1333 0 0 0 295.8222 362.5778 34.1333 34.1333 0 0 0 329.9556 396.7111H694.0444A34.1333 34.1333 0 0 0 728.1778 362.5778 34.1333 34.1333 0 0 0 694.0444 328.4444Z"  horiz-adv-x="1024" vert-adv-y="1024"  />

      
      <glyph glyph-name="components_product" unicode="&#xE024;" d="M458.1831 780.256A140.5156 140.5156 0 0 0 598.5849 639.8542V610.272H734.208A119.4667 119.4667 0 0 0 853.2764 491.1467V355.3529H882.8587A140.2311 140.2311 0 1 0 882.8587 74.8907H853.2764V-61.0738A119.4667 119.4667 0 0 0 734.208-180.1991C575.5449-180.1991 429.1698-180.1991 181.8169-180.1991A119.4667 119.4667 0 0 0 62.6916-61.0738L62.976 100.4907A34.1333 34.1333 0 0 0 97.1093 134.624H160.4836A80.5547 80.5547 0 1 1 160.4836 295.6764H97.1093A34.1333 34.1333 0 0 0 62.976 329.8098L63.2604 491.3173A119.0116 119.0116 0 0 0 181.9307 610.3858H317.6107V639.968A140.5156 140.5156 0 0 0 458.1831 780.256ZM883.0293 143.1004A71.9644 71.9644 0 1 1 883.0293 287.0293H819.5413A34.1333 34.1333 0 0 0 785.408 321.1627V491.0898A51.2 51.2 0 0 1 734.6062 541.9484H564.6791A34.1333 34.1333 0 0 0 530.5458 576.0818V639.7973A72.1351 72.1351 0 1 1 386.3324 639.7973V576.0818A34.1333 34.1333 0 0 0 352.1991 541.9484H182.3858A50.688 50.688 0 0 1 131.9822 491.0898L131.9822 363.7156H161.1662A148.8213 148.8213 0 1 0 161.1662 66.1298H131.1858L131.1858-61.3013A50.8587 50.8587 0 0 1 182.0444-112.1031C429.3973-112.1031 575.7156-112.1031 734.4356-112.1031A51.2 51.2 0 0 1 785.2373-61.2444V108.9671A34.1333 34.1333 0 0 0 819.3707 143.1004Z"  horiz-adv-x="1024" vert-adv-y="1024"  />

      
      <glyph glyph-name="mark_star" unicode="&#xE025;" d="M511.936 787.168A71.552 71.552 0 0 0 578.048 744.352L688.192 498.144 957.312 469.856A72.256 72.256 0 0 0 998.144 344.288L797.248 163.872 853.376-99.744A71.68 71.68 0 0 0 839.04-160.032 73.408 73.408 0 0 0 782.592-187.104 72.576 72.576 0 0 0 746.496-177.376L511.936-42.656 277.504-177.376A72.64 72.64 0 0 0 241.408-187.104 73.408 73.408 0 0 0 184.96-160.032 71.68 71.68 0 0 0 170.624-99.744L226.752 163.872 25.728 344.288A71.36 71.36 0 0 0 5.248 420.256 71.488 71.488 0 0 0 66.56 469.856L335.68 498.144 445.888 744.352A71.552 71.552 0 0 0 511.936 787.168ZM939.2 394.528L677.696 422.368A72.576 72.576 0 0 0 619.2 464.736L511.936 703.968 404.928 464.416A72.576 72.576 0 0 0 346.432 422.048L84.928 394.528 280 219.232A72.384 72.384 0 0 0 302.528 150.496L247.936-105.888 475.968 25.184A72.512 72.512 0 0 0 548.224 25.184L776.128-105.888 721.536 150.496A72.384 72.384 0 0 0 744.128 219.232Z"  horiz-adv-x="1024" vert-adv-y="1024"  />

      
      <glyph glyph-name="fangda" unicode="&#xE026;" d="M877.3486-132.5669L764.4891-19.6343A438.8571 438.8571 0 1 0 827.6114 41.3669L939.52-70.5417A43.8857 43.8857 0 0 0 877.4217-132.64ZM141.3851 324.7954A351.0857 351.0857 0 1 1 492.4709 675.8811 351.5246 351.5246 0 0 1 141.3851 324.7954ZM448.5851 185.824V280.9097H353.4994A43.8857 43.8857 0 1 0 353.4994 368.6811H448.5851V463.7669A43.8857 43.8857 0 0 0 536.3566 463.7669V368.6811H631.4423A43.8857 43.8857 0 0 0 631.4423 280.9097H536.3566V185.824A43.8857 43.8857 0 1 0 448.5851 185.824Z"  horiz-adv-x="1024" vert-adv-y="1024"  />

      
      <glyph glyph-name="pricing_product" unicode="&#xE027;" d="M227.5556-201.6462A144.4978 144.4978 0 0 0 79.6444-61.0738V482.8409A34.1333 34.1333 0 0 0 88.1778 505.5964L196.2667 628.5333 197.9733 630.3538A313.7422 313.7422 0 0 1 220.1031 655.5556 177.3227 177.3227 0 0 0 374.4427 733.7778H472.6898V762.2222A37.3191 37.3191 0 0 0 506.8231 802.0444 37.3191 37.3191 0 0 0 540.9564 762.2222V733.7778H623.3316C627.5413 733.7778 631.6373 733.7778 635.6196 733.7778A208.4409 208.4409 0 0 0 836.1529 633.0844L841.216 626.144S841.216 626.144 841.5004 625.8596L937.8702 492.6258A34.1333 34.1333 0 0 0 944.4124 472.6578V-61.0169A144.5547 144.5547 0 0 0 796.5013-201.5893ZM272.7253 611.8649A394.0124 394.0124 0 0 0 246.6133 582.1689L147.9111 469.8702V-61.1876A76.3449 76.3449 0 0 1 227.5556-133.4933H796.4444A76.3449 76.3449 0 0 1 876.0889-61.1876V461.4507L786.2044 585.4116 781.1413 592.352A142.7911 142.7911 0 0 1 635.4489 665.3973C631.8649 665.3973 628.1671 665.3973 624.3556 665.3973H540.7289V543.9964A148.1956 148.1956 0 0 0 659.7973 398.8729 147.9111 147.9111 0 0 0 511.8862 250.9618 147.9111 147.9111 0 0 0 363.9751 398.8729 148.3093 148.3093 0 0 0 472.4622 541.4933V665.3973H374.3858A111.104 111.104 0 0 1 272.7253 612.2631ZM432.3556 398.7022A79.6444 79.6444 0 0 1 512 319.0578 79.6444 79.6444 0 0 1 591.6444 398.7022 79.6444 79.6444 0 0 1 512 478.3467 79.6444 79.6444 0 0 1 432.3556 398.8729ZM403.9111 45.9911A34.1333 34.1333 0 0 0 369.7778 80.1244 34.1333 34.1333 0 0 0 403.9111 114.2578H620.0889A34.1333 34.1333 0 0 0 654.2222 80.1244 34.1333 34.1333 0 0 0 620.0889 45.9911Z"  horiz-adv-x="1024" vert-adv-y="1024"  />

      
      <glyph glyph-name="next_drawer" unicode="&#xE028;" d="M715.2947 267.3822L413.6414-34.3565C405.5936-42.1269 394.816-46.4277 383.6297-46.3339 372.4425-46.2315 361.7408-41.7515 353.8304-33.8368 345.9191-25.9255 341.4323-15.2247 341.335-4.0375 341.2378 7.1497 345.5386 17.9273 353.3107 25.9742L624.7561 297.5902 353.3107 569.0355C345.5386 577.0825 341.2378 587.8601 341.335 599.0473 341.4323 610.2345 345.9191 620.9361 353.8304 628.8465 361.7408 636.7578 372.4425 641.2446 383.6297 641.3419 394.816 641.4391 405.5936 637.1383 413.6414 629.3662L715.2947 327.7129C723.293 319.712 727.7867 308.861 727.7867 297.5475 727.7867 286.234 723.293 275.3839 715.2947 267.3822Z"  horiz-adv-x="1024" vert-adv-y="1024"  />

      
      <glyph glyph-name="phone_address" unicode="&#xE029;" d="M239.7646 710.9231C235.6669 710.9231 231.6572 710.3781 227.7636 709.2658 203.2402 703.8176 167.8183 676.5686 126.9453 589.3762 113.3203 559.4045 105.1464 523.9817 107.871 483.1096 110.5976 167.0354 383.0761-102.7195 699.1523-110.8933L704.6015-110.8933C742.7499-110.8933 775.4472-105.4441 805.4199-91.8201 895.3398-50.9471 919.8613-15.5252 925.3105 8.9973 930.7617 28.0705 922.5859 49.8694 903.5117 71.6672 889.8886 90.7404 808.1445 186.1076 745.4745 186.1076 710.0527 186.1076 696.4277 172.4846 680.08 156.136 669.1796 145.2365 658.2812 134.3381 639.207 126.1623 625.5839 120.7131 606.5097 115.2639 584.7128 115.2639L581.9863 115.2639C467.5449 117.9885 336.7558 248.7776 334.0312 363.2199 334.0312 387.7424 339.4804 404.091 344.9296 420.4397 353.1035 436.7893 364.0038 450.4123 374.9023 461.3117 391.2499 480.384 404.8749 491.2834 404.8749 526.7063 404.8749 589.3762 309.5078 671.1203 290.4335 687.468 273.0859 702.6477 255.7392 710.9231 239.7646 710.9231M239.7646 787.7229C263.748 787.7229 300.6992 780.3947 340.6738 745.5559 435.5536 664.1819 481.6747 592.5949 481.6747 526.7063 481.6747 466.2151 455.3163 436.3918 437.8749 416.6565 436.3613 414.9436 434.8017 413.1838 433.2138 411.3313L431.2949 409.093 429.2099 407.008C423.6581 401.4553 419.1474 395.7551 415.7568 390.0119 412.5781 380.2258 410.9345 373.7736 410.8359 364.1496 412.0214 330.301 434.7763 287.2981 470.4208 251.6535 506.1142 215.9611 549.1845 193.1916 583.0546 192.0637L584.7128 192.0637C594.4853 192.0637 603.5507 194.7121 609.7197 197.0901 614.2382 199.1496 616.9257 201.594 625.7734 210.4416 645.3945 230.0637 678.2363 262.9074 745.4745 262.9074 791.9365 262.9074 840.3427 240.3147 893.4589 193.8381 924.8163 166.3996 951.4765 135.7492 963.6347 119.5412 1009.6943 65.2072 1006.6142 16.2541 999.8144-9.6951 985.6367-69.4295 933.8886-117.7859 837.2001-161.7361 798.2411-179.4451 756.1074-187.6931 704.6015-187.6931L697.1669-187.6678C609.7128-185.406 523.998-165.7234 442.4023-129.1668 364.0283-94.0545 293.1376-45.0984 231.7001 16.3391 104.3369 143.7024 33.1474 308.3908 31.0956 480.3147 28.1786 529.5002 36.8994 576.8762 57.0302 621.1594L57.4072 621.9738C101.9609 717.0197 151.5536 769.968 208.954 783.7395 218.9579 786.384 229.3115 787.7229 239.7646 787.7229Z"  horiz-adv-x="1024" vert-adv-y="1024"  />

      
      <glyph glyph-name="pre_drawer" unicode="&#xE02A;" d="M679.8336 626.9632L353.9968 301.2288 679.8336-24.7104A51.2 51.2 0 0 0 607.4368-97.1072L245.4528 264.9792A51.2 51.2 0 0 0 245.4528 337.376L607.4368 699.36A51.2 51.2 0 0 0 679.8336 626.9632Z"  horiz-adv-x="1024" vert-adv-y="1024"  />

      
      <glyph glyph-name="remove" unicode="&#xE02B;" d="M0 299.968A511.968 511.968 0 0 0 511.968 811.936 511.968 511.968 0 0 0 1023.936 299.968 511.968 511.968 0 0 0 511.968-212 511.968 511.968 0 0 0 0 299.968ZM76.7952 299.968A435.6208 435.6208 0 0 1 511.968-135.2048 435.6208 435.6208 0 0 1 947.1408 299.968 435.6208 435.6208 0 0 1 511.968 735.1408 435.6208 435.6208 0 0 1 76.7952 299.968ZM358.3776 261.5704A38.3976 38.3976 0 0 0 319.98 299.968 38.3976 38.3976 0 0 0 358.3776 338.3656H665.5584A38.3976 38.3976 0 0 0 703.956 299.968 38.3976 38.3976 0 0 0 665.5584 261.5704Z"  horiz-adv-x="1024" vert-adv-y="1024"  />

      
      <glyph glyph-name="product_info" unicode="&#xE02C;" d="M194.9013-160.8A148.8213 148.8213 0 0 0 45.4542-12.8889V500.8747A34.1333 34.1333 0 0 0 49.2089 516.4053L106.8942 628.4764A7.168 7.168 0 0 0 107.8044 630.0124C113.4933 639.3991 118.3289 648.7289 123.2782 657.8311 149.3902 706.0729 179.0293 760.8 252.5867 760.8H771.4133C844.9707 760.8 875.1218 705.1058 901.632 656.1244 906.3538 647.5911 911.1324 638.5458 916.1956 630.0124 916.5938 629.216 917.1058 628.4764 917.504 627.68L975.0756 507.4738A34.8729 34.8729 0 0 0 978.432 492.6258V-12.9458A148.8213 148.8213 0 0 0 828.9849-160.8569ZM113.7778-12.8889A80.4978 80.4978 0 0 1 194.9013-92.5333H828.9849A80.4978 80.4978 0 0 1 910.2222-12.8889V442.2222H113.7778ZM897.9342 510.4889L856.5191 596.96C851.1716 606.0053 846.2222 614.9938 841.5573 623.6978 814.5351 673.76 801.3938 692.5902 771.4133 692.5902H252.5867C222.4356 692.5902 210.2044 675.1822 183.1822 625.2907Q175.7867 611.3529 167.1964 596.3911L123.0507 510.4889ZM233.1876 294.3111A34.1333 34.1333 0 0 0 199.0542 328.4444 34.1333 34.1333 0 0 0 233.1876 362.5778H449.3653A34.1333 34.1333 0 0 0 483.4987 328.4444 34.1333 34.1333 0 0 0 449.3653 294.3111Z"  horiz-adv-x="1024" vert-adv-y="1024"  />

      
      <glyph glyph-name="warning_info_outline" unicode="&#xE02D;" d="M0 299.936A512 512 0 0 0 512 811.936 512 512 0 0 0 1024 299.936 512 512 0 0 0 512-212.064 512 512 0 0 0 0 299.936ZM76.8 299.936A435.648 435.648 0 0 1 512-135.264 435.648 435.648 0 0 1 947.2 299.936 435.584 435.584 0 0 1 512 735.136 435.584 435.584 0 0 1 76.8 299.936ZM460.8 46.688V149.088H563.2V46.688ZM460.8 232.928V552.928H563.2V232.928Z"  horiz-adv-x="1024" vert-adv-y="1024"  />

      
      <glyph glyph-name="supplier_product" unicode="&#xE02E;" d="M209.7493-155.0542A110.8764 110.8764 0 0 0 93.5253-50.9476V307.4524A176.8107 176.8107 0 0 1 161.792 267.6302V-50.9476C161.792-70.4036 183.808-86.7307 209.7493-86.7307H814.2507C840.2489-86.7307 862.2649-70.4036 862.2649-50.9476V267.6302A178.6311 178.6311 0 0 1 930.5316 307.7369V-51.0613A110.7627 110.7627 0 0 0 814.3644-155.168ZM161.792 340.2204A176.8676 176.8676 0 0 0 93.5253 380.0427 180.3947 180.3947 0 0 0 35.328 512.992 32.1991 32.1991 0 0 0 36.4089 521.0133L79.4169 702.3182A68.2667 68.2667 0 0 0 145.92 754.8267L878.1369 754.8267A68.2667 68.2667 0 0 0 944.7538 702.1476L987.9324 520.8427A39.8222 39.8222 0 0 0 988.7858 512.992 180.1102 180.1102 0 0 0 930.5884 380.0427 178.7449 178.7449 0 0 0 862.3218 339.936 180.0533 180.0533 0 0 0 807.1964 331.4027 181.1911 181.1911 0 0 0 659.5698 406.8942 180.7929 180.7929 0 0 0 512.1138 331.4027 181.4756 181.4756 0 0 0 364.6578 406.8942 181.4187 181.4187 0 0 0 217.1449 331.2889 180.224 180.224 0 0 0 161.8489 340.2204ZM145.7493 686.56L103.7653 509.5787A113.4364 113.4364 0 0 1 217.088 399.84 113.3227 113.3227 0 0 1 326.9973 485.1733 38.6844 38.6844 0 0 0 364.3733 519.3067H364.3733C373.0204 519.3067 394.0124 515.8933 401.92 484.7751A113.3227 113.3227 0 0 1 511.8293 399.4418 113.0382 113.0382 0 0 1 622.0231 485.9698 38.3431 38.3431 0 0 0 659.2853 520.1031 35.9538 35.9538 0 0 0 678.5707 514.4142 46.9902 46.9902 0 0 0 696.832 485.4009 112.8676 112.8676 0 0 1 806.912 399.1573 113.7778 113.7778 0 0 1 920.2347 508.7822L878.08 685.9342H145.6924L112.2418 693.7849Z"  horiz-adv-x="1024" vert-adv-y="1024"  />

      
      <glyph glyph-name="variations_product" unicode="&#xE02F;" d="M475.3636-156.8178L63.6587 63.6267A31.8009 31.8009 0 0 0 48.2987 82.4569 31.6302 31.6302 0 0 0 50.9156 106.5778 32.1991 32.1991 0 0 0 94.3218 119.2071L503.9218-100.2702 922.9084 134.9084A32.1422 32.1422 0 0 0 966.5991 123.0187 31.4027 31.4027 0 0 0 954.5956 79.84L533.9022-156.192A48.128 48.128 0 0 0 503.9218-166.5458 47.5022 47.5022 0 0 0 475.3636-156.8178ZM475.3636 45.8204L63.6018 266.2649A31.4027 31.4027 0 0 0 50.7449 309.216 32.1422 32.1422 0 0 0 94.1511 321.8453L503.7511 102.1973 922.7378 337.5467A32.5404 32.5404 0 0 0 966.5422 325.7707 31.3458 31.3458 0 0 0 954.5956 282.7058L533.6178 46.4462A48.2418 48.2418 0 0 0 503.6373 36.0924 47.2747 47.2747 0 0 0 475.5342 45.8773ZM477.9804 250.1084L66.6738 470.6667A29.4684 29.4684 0 0 0 59.2782 476.3556 46.3644 46.3644 0 0 0 59.7333 542.5742 30.5493 30.5493 0 0 0 67.9253 548.2631L487.3671 756.7609A48.0711 48.0711 0 0 0 516.5511 766.5458 47.3316 47.3316 0 0 0 544.5404 757.5004L956.1884 564.704A30.1511 30.1511 0 0 0 965.1769 558.56 46.2507 46.2507 0 0 0 978.8302 524.8818 46.6489 46.6489 0 0 0 964.7218 492.2276 34.1333 34.1333 0 0 0 957.8382 487.0507L536.8604 250.848A48.0711 48.0711 0 0 0 506.88 240.4942H506.2542A47.1609 47.1609 0 0 0 478.1511 250.1653ZM130.1049 508.4409L506.7093 306.7129 893.5538 523.8578 516.5511 700.2133Z"  horiz-adv-x="1024" vert-adv-y="1024"  />

      
      <glyph glyph-name="tax_product" unicode="&#xE030;" d="M701.6286-141.4048A26.7932 26.7932 0 0 0 697.7603-139.5276L659.9882-118.5936A30.3201 30.3201 0 0 1 632.1711-117.6835L580.2344-142.5994 579.1536-143.0545A172.6482 172.6482 0 0 0 509.2979-158.0154 154.843 154.843 0 0 0 446.7236-145.1593L384.1493-117.9679 383.8649-117.9679A36.1793 36.1793 0 0 1 353.4879-120.8122L335.2845-130.9378A162.1812 162.1812 0 0 0 251.378-154.3179 161.7261 161.7261 0 0 0 176.744-136.0007 156.3789 156.3789 0 0 0 89.1968-12.5586C89.1968-11.4778 89.1968-10.3401 89.1968-9.2593V656.1331H34.3021A34.1314 34.1314 0 0 0 0.1707 690.2645 34.1314 34.1314 0 0 0 34.3021 724.396H989.9823A34.1314 34.1314 0 0 0 1024.1138 690.2645 34.1314 34.1314 0 0 0 989.9823 656.1331H935.2014V5.6448A190.7947 190.7947 0 0 0 922.5159-60.8546 6.2005 6.2005 0 0 0 922.5159-61.5372 151.2592 151.2592 0 0 0 831.1574-147.3778 115.8762 115.8762 0 0 0 777.6279-158.4136 206.3814 206.3814 0 0 0 701.6286-141.4048ZM693.1526-58.9205L728.9906-78.7736A134.3072 134.3072 0 0 1 777.2297-90.1508 48.4666 48.4666 0 0 1 799.5289-86.6807 32.4818 32.4818 0 0 0 806.8672-83.3814 82.5412 82.5412 0 0 1 858.6332-36.5075 123.954 123.954 0 0 1 866.8247 5.6448V650.4445H157.3459V-7.2114A88.5711 88.5711 0 0 1 207.6898-74.9623 3.5269 3.5269 0 0 1 208.2587-75.3605 93.4633 93.4633 0 0 1 251.4349-85.8843 93.2926 93.2926 0 0 1 300.3566-72.2318L301.5512-71.5491 320.4942-61.0253A107.7416 107.7416 0 0 0 372.6584-47.4296 94.7716 94.7716 0 0 0 411.5114-55.4505L474.0857-82.6419A87.0352 87.0352 0 0 1 509.1273-89.8095 107.2296 107.2296 0 0 1 551.1089-80.8215L602.9318-55.9624 603.842-55.5074A101.4273 101.4273 0 0 0 645.4255-46.5194 96.08 96.08 0 0 0 693.3801-58.9205ZM347.0598 193.9934A34.1314 34.1314 0 0 0 312.9284 228.1249 34.1314 34.1314 0 0 0 347.0598 262.2563H676.9971A34.1314 34.1314 0 0 0 711.1285 228.1249 34.1314 34.1314 0 0 0 676.9971 193.9934ZM347.0598 383.2523A34.1314 34.1314 0 0 0 312.9284 417.3837 34.1314 34.1314 0 0 0 347.0598 451.5151H676.9971A34.1314 34.1314 0 0 0 711.1285 417.3837 34.1314 34.1314 0 0 0 676.9971 383.2523Z"  horiz-adv-x="1024" vert-adv-y="1024"  />

      
      <glyph glyph-name="upload_img" unicode="&#xE031;" d="M489.2526-143.392A43.8857 43.8857 0 0 0 468.0411-103.6023V284.64L396.6537 213.1794A43.8857 43.8857 0 1 0 334.5554 275.2777L480.8411 421.5634A43.8857 43.8857 0 0 0 542.8663 421.5634L689.152 275.2777A43.8857 43.8857 0 0 0 670.4274 199.8674 45.1291 45.1291 0 0 0 659.7486 198.624 43.8857 43.8857 0 0 0 627.1269 213.2526L555.8126 284.5669V-103.6023A43.8857 43.8857 0 0 0 489.3257-143.392ZM677.0103 31.6389A42.496 42.496 0 1 0 677.0103 116.5577H776.704A150.8206 150.8206 0 0 1 787.5291 417.76 42.7886 42.7886 0 0 0 748.6171 455.2091 238.7383 238.7383 0 0 1 274.7977 455.2091 42.496 42.496 0 0 0 235.9589 417.9063 150.8206 150.8206 0 0 1 246.7109 116.6309H331.9223A42.496 42.496 0 1 0 331.9223 31.712H248.32A235.9589 235.9589 0 0 0 196.2423 497.7051 323.7303 323.7303 0 0 0 827.5383 497.7051 235.9589 235.9589 0 0 0 775.5337 31.712Z"  horiz-adv-x="1024" vert-adv-y="1024"  />

      
      <glyph glyph-name="empty_data" unicode="&#xE032;" d="M111.8523-137.5434L110.7298-137.5434A105.7477 105.7477 0 0 0 46.592-113.5975 93.3218 93.3218 0 0 0 19.8892-53.5557C19.8892-52.9649 19.8892-52.3938 19.8892-51.8031V121.2726A180.2831 180.2831 0 0 0 27.1557 179.2468 215.4142 215.4142 0 0 0 47.1631 226.272L134.0652 380.0098C134.5182 380.7778 134.9711 381.5065 135.4634 382.2548A138.8111 138.8111 0 0 0 172.7015 419.3945 108.5046 108.5046 0 0 0 226.4418 433.4942H775.3255A19.8892 19.8892 0 0 0 777.4523 433.4942 141.5286 141.5286 0 0 0 833.1618 418.2129 158.7594 158.7594 0 0 0 874.1218 381.2111 30.6806 30.6806 0 0 0 875.9335 378.6314L979.1212 215.0868A24.32 24.32 0 0 0 980.4209 212.8418 234.3385 234.3385 0 0 0 997.7698 169.5188 240.8763 240.8763 0 0 0 1004.3077 124.8172V-49.7157A86.1735 86.1735 0 0 0 976.7385-113.5975 105.6689 105.6689 0 0 0 909.2529-137.4055ZM85.7994 122.3951V-50.6609L85.7994-51.1138A30.208 30.208 0 0 1 91.392-65.1742L91.8055-65.6665 92.3175-66.0603A50.6092 50.6092 0 0 1 112.2265-71.5742L909.1545-71.5742A42.0431 42.0431 0 0 1 932.5489-64.5834 20.1846 20.1846 0 0 1 938.2794-52.0394V122.2966C938.2794 122.7495 938.2794 123.2615 938.2794 123.7932L666.624 123.6357 665.1471 117.9249A159.3305 159.3305 0 0 0 510.2277-1.8437 159.6652 159.6652 0 0 0 354.9538 117.9249L353.5163 123.6357 85.7009 123.7932C85.7994 123.3206 85.7994 122.8677 85.7994 122.4148ZM383.1532 189.5458A33.0634 33.0634 0 0 0 416.1378 156.5415 92.2782 92.2782 0 0 1 510.2474 64.1255 92.1009 92.1009 0 0 1 604.0025 156.5415 33.0634 33.0634 0 0 0 636.9871 189.5458L917.1298 189.7034 821.1298 341.8462 820.8148 342.24A96.4923 96.4923 0 0 1 800.4135 360.9477 80.4431 80.4431 0 0 1 774.4 367.5249L773.7305 367.5249H226.56A46.1391 46.1391 0 0 1 207.5372 363.4092 76.4455 76.4455 0 0 1 190.9957 346.592L190.7594 346.2375 104.3889 193.4843 103.4831 191.9089V191.9089L103.0892 191.1803 102.2425 189.6443ZM475.9631 514.8825V704.5982A33.0437 33.0437 0 0 0 508.928 737.5631 33.0437 33.0437 0 0 0 541.9323 704.5982V514.8825A33.0437 33.0437 0 0 0 508.9674 481.8782 33.0634 33.0634 0 0 0 475.8843 514.8825ZM729.9938 483.1188A33.0437 33.0437 0 0 0 697.0092 516.1034 32.7877 32.7877 0 0 0 704.3938 536.8788L779.7957 629.8658A32.9058 32.9058 0 0 0 805.3957 642.1145 32.5711 32.5711 0 0 0 826.1317 634.7298 32.7286 32.7286 0 0 0 838.1637 612.5366 32.6302 32.6302 0 0 0 830.9957 588.3742L755.5938 495.3871A32.7483 32.7483 0 0 0 729.9938 483.1385ZM265.6886 498.0455L191.5471 591.0326A33.024 33.024 0 0 0 196.8049 637.3883 32.5908 32.5908 0 0 0 217.3243 644.5563 32.768 32.768 0 0 0 243.1409 632.1502L317.2825 539.1631A33.0437 33.0437 0 0 0 312.064 492.8271 33.2012 33.2012 0 0 0 291.5052 485.6197H291.3674A32.7483 32.7483 0 0 0 265.7674 498.0652Z"  horiz-adv-x="1024" vert-adv-y="1024"  />

      
      <glyph glyph-name="arrow_select" unicode="&#xE033;" d="M482.7307 77.536L181.0773 379.2747A42.6667 42.6667 0 0 0 181.0773 439.52 42.6667 42.6667 0 0 0 241.408 439.52L512.9387 168.0747 784.4693 439.52A42.6667 42.6667 0 0 0 844.7147 439.52 42.6667 42.6667 0 0 0 844.7147 379.2747L543.0613 77.536A42.6667 42.6667 0 0 0 512.8533 65.0773 42.6667 42.6667 0 0 0 482.7307 77.536Z"  horiz-adv-x="1024" vert-adv-y="1024"  />

      
      <glyph glyph-name="arrow_select_zk" unicode="&#xE034;" d="M543.0613 440.2027L844.7147 138.464A42.6667 42.6667 0 0 0 844.7147 78.2187 42.6667 42.6667 0 0 0 784.384 78.2187L512.8533 349.664 241.3227 78.2187A42.6667 42.6667 0 0 0 181.0773 78.2187 42.6667 42.6667 0 0 0 181.0773 138.464L482.7307 440.2027A42.6667 42.6667 0 0 0 512.9387 452.6613 42.6667 42.6667 0 0 0 543.0613 440.2027Z"  horiz-adv-x="1024" vert-adv-y="1024"  />

      
      <glyph glyph-name="date_select" unicode="&#xE035;" d="M146.2648-211.8537A146.2648 146.2648 0 0 0 0-65.5889V592.6028A146.2648 146.2648 0 0 0 146.2648 738.8676H292.5296V775.4338A36.5662 36.5662 0 0 0 329.0958 812 36.5662 36.5662 0 0 0 365.662 775.4338V738.8676H658.1917V775.4338A36.5662 36.5662 0 0 0 694.7579 812 36.5662 36.5662 0 0 0 731.3241 775.4338V738.8676H877.5889A146.2648 146.2648 0 0 0 1023.8537 592.6028V-65.5889A146.2648 146.2648 0 0 0 877.5889-211.8537ZM73.1324-65.5889A73.1324 73.1324 0 0 1 146.2648-138.7213H877.5889A73.1324 73.1324 0 0 1 950.7213-65.5889V446.338H73.1324ZM950.7213 519.4704V592.6028A73.1324 73.1324 0 0 1 877.5889 665.7352H731.3241V629.169A36.5662 36.5662 0 0 0 694.7579 592.6028 36.5662 36.5662 0 0 0 658.1917 629.169V665.7352H365.662V629.169A36.5662 36.5662 0 0 0 329.0958 592.6028 36.5662 36.5662 0 0 0 292.5296 629.169V665.7352H146.2648A73.1324 73.1324 0 0 1 73.1324 592.6028V519.4704ZM358.3488 153.8083A36.5662 36.5662 0 0 0 321.7826 190.3745 36.5662 36.5662 0 0 0 358.3488 226.9407H665.5049A36.5662 36.5662 0 0 0 702.0711 190.3745 36.5662 36.5662 0 0 0 665.5049 153.8083Z"  horiz-adv-x="1024" vert-adv-y="1024"  />

      
      <glyph glyph-name="search" unicode="&#xE036;" d="M675.328 558.9989A298.6423 298.6423 0 1 1 675.328 136.5989 298.6423 298.6423 0 0 1 675.328 558.9989ZM192.5851 619.3417A384 384 0 0 0 764.1966 108.1463L916.6994-44.3566 856.3566-104.6994 703.8537 47.8034A384 384 0 0 0 192.6583 619.3417Z"  horiz-adv-x="1024" vert-adv-y="1024"  />

      
      <glyph glyph-name="tips_success" unicode="&#xE037;" d="M511.936-212A512.512 512.512 0 0 0-0.064 300 512.512 512.512 0 0 0 511.936 812 512.576 512.576 0 0 0 1023.936 300 512.64 512.64 0 0 0 511.936-212ZM353.536 386.656A63.36 63.36 0 0 1 308.288 367.84 63.424 63.424 0 0 1 289.536 322.592 63.552 63.552 0 0 1 308.288 277.28L444.096 141.472A64.448 64.448 0 0 1 489.344 122.72 64.576 64.576 0 0 1 534.592 141.472L760.768 367.776A63.36 63.36 0 0 1 779.584 413.024 63.552 63.552 0 0 1 760.768 458.336 63.488 63.488 0 0 1 715.584 477.024 63.552 63.552 0 0 1 670.336 458.336L489.28 277.28 398.72 367.84A63.616 63.616 0 0 1 353.536 386.656Z"  horiz-adv-x="1024" vert-adv-y="1024"  />

      
      <glyph glyph-name="tips_error" unicode="&#xE038;" d="M512-212A509.184 509.184 0 0 0 150.208-61.792 509.056 509.056 0 0 0 0 300 513.152 513.152 0 0 0 512 812 508.992 508.992 0 0 0 873.856 661.92 509.312 509.312 0 0 0 1024 300 509.312 509.312 0 0 0 873.792-61.856 509.312 509.312 0 0 0 512-212ZM512 218.656H512L611.456 119.072A57.6 57.6 0 0 1 652.224 102.24 57.6 57.6 0 0 1 692.992 119.072 57.6 57.6 0 0 1 709.888 159.84 57.6 57.6 0 0 1 692.992 200.608L593.472 300.128 692.992 399.648A57.6 57.6 0 0 1 692.992 481.184 57.6 57.6 0 0 1 652.224 498.016 57.216 57.216 0 0 1 611.456 481.184L511.936 381.6 412.416 481.184A57.216 57.216 0 0 1 371.648 498.016 57.6 57.6 0 0 1 330.88 481.184 57.6 57.6 0 0 1 313.984 440.416 57.6 57.6 0 0 1 330.88 399.648L430.464 300.128 330.88 200.608A57.6 57.6 0 0 1 330.88 119.072 57.6 57.6 0 0 1 371.648 102.24 57.216 57.216 0 0 1 412.416 119.072L511.936 218.656Z"  horiz-adv-x="1024" vert-adv-y="1024"  />

      
      <glyph glyph-name="delete_inventory" unicode="&#xE039;" d="M359.4891 738.8571H658.6441C691.1707 738.3751 722.176 725.0156 744.8722 701.7064 767.5611 678.398 780.0832 647.0424 779.6955 614.5143V576.2679H906.9714C918.6085 576.2679 929.7701 571.6445 938.0059 563.4138 946.2345 555.1837 950.8571 544.0214 950.8571 532.3822 950.8571 520.7429 946.2345 509.5806 938.0059 501.3506 929.7701 493.1198 918.6085 488.4965 906.9714 488.4965H852.3776L852.7579-43.7714C853.3285-62.5691 846.4165-80.8329 833.5433-94.5472 820.6629-108.2542 802.8745-116.2999 784.0768-116.9143H234.3329C215.5323-116.2999 197.7424-108.2542 184.8664-94.5472 171.9903-80.8329 165.0798-62.5691 165.6517-43.7714L165.3365 488.4965H117.0286C105.3893 488.4965 94.227 493.1198 85.997 501.3506 77.7662 509.5806 73.1429 520.7429 73.1429 532.3822 73.1429 544.0214 77.7662 555.1837 85.997 563.4138 94.227 571.6445 105.3893 576.2679 117.0286 576.2679H238.4377V614.5143C238.0464 647.0424 250.5699 678.398 273.2617 701.7064 295.9536 725.0156 326.9625 738.3751 359.4891 738.8571ZM359.4891 651.0857C349.9184 650.9511 340.7923 647.0241 334.1144 640.1677 327.4357 633.3113 323.7508 624.085 323.8685 614.5143V577.9429H694.2647V614.5143C694.3817 624.085 690.6953 633.3113 684.0174 640.1677 677.3394 647.0241 668.2112 650.9511 658.6441 651.0857H359.4891ZM253.0575 487.1748L253.4232-29.1429H764.9865V487.1748H253.0575Z"  horiz-adv-x="1024" vert-adv-y="1024"  />

      
      <glyph glyph-name="adress_order" unicode="&#xE03A;" d="M154.1689-172.064A73.0453 73.0453 0 0 0 92.16-137.1342 72.9884 72.9884 0 0 0 89.1449-66.0231L91.4773-61.7564 166.5138 66.2436A36.5796 36.5796 0 0 0 215.4382 80.0676 36.6364 36.6364 0 0 0 231.0827 31.6551L229.7173 29.2089 154.6809-98.848 869.4329-102.7164 790.6987 32.224A36.6364 36.6364 0 0 0 803.84 82.3431 36.7502 36.7502 0 0 0 852.4231 71.5911L854.016 69.1449 932.7502-65.7956A73.3298 73.3298 0 0 0 934.1156-137.1911 73.4436 73.4436 0 0 0 873.984-175.8187L869.0916-175.8187ZM456.2489 0.3093L241.4933 250.2222 240.5831 251.1893A56.0924 56.0924 0 0 0 236.8853 255.968L235.2356 258.528 233.1876 261.9413 229.6036 267.0044A320.512 320.512 0 0 0 174.0231 447.7404 333.4258 333.4258 0 0 0 511.8293 776.1031 332.9138 332.9138 0 0 0 848.9529 447.1716 324.9493 324.9493 0 0 0 788.992 261.7138L787.0578 258.4711 785.408 255.9111A51.9396 51.9396 0 0 0 780.1742 249.312L567.4098 0.4231A73.2729 73.2729 0 0 0 511.8293-25.2338 73.5004 73.5004 0 0 0 456.2489 0.2524ZM247.3529 447.5698A247.1822 247.1822 0 0 1 293.8311 302.9013L294.912 301.3653 296.96 297.952 511.8293 48.1529 725.3902 297.952 728.5191 302.9013A252.0747 252.0747 0 0 1 775.68 447.5698 259.5271 259.5271 0 0 1 511.8862 702.7164 260.096 260.096 0 0 1 247.3529 447.5698ZM365.6249 440.9707A146.4889 146.4889 0 0 0 512.1707 587.5164 146.4889 146.4889 0 0 0 658.7164 440.9707 146.4889 146.4889 0 0 0 512.1707 294.4249 146.4889 146.4889 0 0 0 365.6249 440.9707ZM438.8409 440.9707A73.2729 73.2729 0 0 1 512.0569 367.6409 73.3298 73.3298 0 0 1 585.3867 440.9707 73.2729 73.2729 0 0 1 512.1707 514.3004 73.3298 73.3298 0 0 1 438.8409 440.9707Z"  horiz-adv-x="1024" vert-adv-y="1024"  />

      
      <glyph glyph-name="item_order" unicode="&#xE03B;" d="M512 790.3822A229.1484 229.1484 0 0 0 741.1484 561.2338H883.7689A38.1724 38.1724 0 0 0 921.8844 525.6782L967.3956-136.3947A38.1724 38.1724 0 0 0 929.28-177.184H94.6062A38.1724 38.1724 0 0 0 56.4907-136.3947L102.0018 525.6782A38.1724 38.1724 0 0 0 140.1173 561.2338H282.7378A229.1484 229.1484 0 0 0 511.8862 790.3822ZM819.6551 484.832H204.3449A25.4862 25.4862 0 0 1 179.3707 464.5796L178.9724 461.6213 132.4373-73.1342A25.4862 25.4862 0 0 1 154.8516-100.6116L157.8098-100.6116H866.1333A25.4862 25.4862 0 0 1 891.6196-75.9218L891.6196-72.9636 845.1413 461.792A25.4862 25.4862 0 0 1 819.7689 485.0596ZM304.8676 219.7298A38.1724 38.1724 0 0 0 338.1476 200.3876 203.776 203.776 0 0 1 685.8524 200.3876 38.2293 38.2293 0 0 0 751.0471 160.5653 280.2347 280.2347 0 0 0 273.1804 160.5653 38.1724 38.1724 0 0 0 305.0951 219.7867ZM511.9431 714.0373A152.8036 152.8036 0 0 1 359.1396 561.2338H664.576A152.8036 152.8036 0 0 1 512 713.9804Z"  horiz-adv-x="1024" vert-adv-y="1024"  />

      
      <glyph glyph-name="order_supplier" unicode="&#xE03C;" d="M798.622-146.551A64.5058 64.5058 0 0 0 863.1847-81.9315 64.5058 64.5058 0 0 0 927.7473-146.551 64.449 64.449 0 0 0 863.1847-211.1137 64.449 64.449 0 0 0 798.622-146.551ZM282.007-146.551A64.5058 64.5058 0 0 0 346.5697-81.9315 64.5058 64.5058 0 0 0 411.1323-146.551 64.449 64.449 0 0 0 346.5697-211.1137 64.449 64.449 0 0 0 282.1207-146.551ZM341.7388-3.7857A114.4055 114.4055 0 0 0 230.857 87.4887L169.7612 600.8642A38.5898 38.5898 0 0 1 132.4217 630.4175H60.9822A37.5668 37.5668 0 0 0 23.6427 668.2117 38.1352 38.1352 0 0 0 60.9822 706.6878H132.4217A114.4055 114.4055 0 0 0 243.3035 615.4703L304.3993 102.038A38.5898 38.5898 0 0 1 341.7388 72.5415H845.68A37.9647 37.9647 0 0 1 883.0195 103.1747L915.7555 413.712A41.4315 41.4315 0 0 1 909.0492 449.4602 38.0215 38.0215 0 0 1 879.098 464.2368H376.0662A37.5668 37.5668 0 0 0 338.954 502.2583 37.51 37.51 0 0 0 376.0662 540.0525H878.8707A112.189 112.189 0 0 0 967.6443 496.6887 118.3838 118.3838 0 0 0 989.7525 399.1627L956.7892 88.6253A114.4055 114.4055 0 0 0 845.68-3.7857ZM549.9193 188.9362L478.9345 265.036A39.7833 39.7833 0 0 0 480.9805 321.2442 39.7833 39.7833 0 0 0 537.2455 319.1982L582.2007 271.0035 695.1853 368.0748A39.7833 39.7833 0 0 0 751.4503 363.926 40.0675 40.0675 0 0 0 747.0742 307.661L604.9908 185.924A39.7833 39.7833 0 0 0 579.1885 176.2623 40.2948 40.2948 0 0 0 550.033 188.9362Z"  horiz-adv-x="1023" vert-adv-y="1024"  />

      
      <glyph glyph-name="shipment_item" unicode="&#xE03D;" d="M855.0969 666.7627L633.6284 765.1236A304.2418 304.2418 0 0 1 390.2009 765.1236L169.0738 666.7627A236.6009 236.6009 0 0 1 21.1627 452.2347V147.7084A236.6009 236.6009 0 0 1 169.0738-66.9333L390.5422-165.2942A300.4871 300.4871 0 0 1 511.0329-190.4391H513.3653A300.4871 300.4871 0 0 1 633.856-165.2942L855.3244-66.9333A236.6009 236.6009 0 0 1 1003.2356 147.7084V452.2347A236.6009 236.6009 0 0 1 855.3244 666.8764ZM420.9209 696.1173A228.0107 228.0107 0 0 0 602.9653 696.1173L824.4338 597.7564A192.1707 192.1707 0 0 0 864.7111 573.5218L738.4178 517.3156 378.368 677.2871ZM199.4524 597.7564L285.4684 635.9289 645.4613 476.0142 572.416 443.6444A157.3547 157.3547 0 0 0 451.2996 443.6444L159.1751 573.5787A194.7876 194.7876 0 0 0 199.5093 597.8133ZM199.4524 1.9591A162.1902 162.1902 0 0 0 96.7111 147.5947V452.2347A143.872 143.872 0 0 0 110.3644 512.6507L420.8071 374.6951A219.5911 219.5911 0 0 1 474.2827 359.6196V-111.5342A221.5253 221.5253 0 0 0 421.0347-96.4587ZM927.3458 147.5947A162.1902 162.1902 0 0 0 824.4907 1.9591L603.0222-96.4018A219.136 219.136 0 0 0 549.7742-111.4773V359.6196A219.5911 219.5911 0 0 1 603.2498 374.6951L913.6924 512.6507A143.872 143.872 0 0 0 927.3458 452.2347Z"  horiz-adv-x="1024" vert-adv-y="1024"  />

      
      <glyph glyph-name="payments_purchase" unicode="&#xE03E;" d="M92.5013-188.7893A69.5751 69.5751 0 0 0 22.016-120.0107V-1.9662A68.608 68.608 0 0 0 65.8204 61.6356C100.6933 75.4596 179.5982 106.6347 251.1076 133.1449A370.9156 370.9156 0 0 0 124.8711 411.1609 383.0898 383.0898 0 0 0 512.512 788.7324 383.0329 383.0329 0 0 0 899.9822 411.1609 370.9156 370.9156 0 0 0 882.176 297.3831 35.3849 35.3849 0 0 0 838.0302 274.9689 34.1333 34.1333 0 0 0 815.2747 317.92 306.5173 306.5173 0 0 1 829.8382 410.9902 313.5147 313.5147 0 0 1 512.6827 719.9538 313.4578 313.4578 0 0 1 195.6978 410.9902 304.8107 304.8107 0 0 1 328.3058 160.3947 424.1067 424.1067 0 0 0 385.1947 176.7787 65.8773 65.8773 0 0 0 395.6053 177.5182 70.9404 70.9404 0 0 0 441.6284 160.736 67.2996 67.2996 0 0 0 464.0427 124.9529 66.7876 66.7876 0 0 0 454.9973 69.8844C447.6587 58.9618 432.2418 39.4489 415.1751 18.6844H419.6124A638.8053 638.8053 0 0 1 641.4791 58.5067 424.5618 424.5618 0 0 1 759.6942 156.9813C825.5716 224.9067 869.1484 265.9804 920.5191 265.9804A84.0818 84.0818 0 0 0 976.9529 243.9076C994.9298 227.9787 1015.6373 193.3902 989.2978 125.8631 946.0053 15.5556 757.3049-188.2204 602.1689-188.9031ZM92.5013-1.9662V-120.0107H601.6C712.9884-119.4987 883.2 48.8356 922.8516 150.6098 934.2293 180.3627 930.5316 192.3662 928.8249 193.3902A12.1173 12.1173 0 0 1 919.9502 197.4862C895.3173 197.4862 846.3929 147.0258 810.4391 110.048A452.9493 452.9493 0 0 0 666.0551-5.5502 711.9076 711.9076 0 0 0 419.0436-49.8667 502.272 502.272 0 0 0 340.3662-44.6898 36.1813 36.1813 0 0 0 312.32-21.9342 35.3849 35.3849 0 0 0 318.6347 13.3369C349.5822 48.7218 385.536 92.9813 395.4347 107.7156A2.1049 2.1049 0 0 0 395.0933 109.0809C369.3796 105.2693 209.9769 44.9102 92.5013-2.08ZM511.6018 170.8053A32.9956 32.9956 0 0 0 478.7769 203.4596V239.7547A141.1982 141.1982 0 0 0 434.4604 258.3573 127.2036 127.2036 0 0 0 405.7316 281.9662 32.5973 32.5973 0 0 0 397.5396 305.9164 32.5404 32.5404 0 0 0 408.9173 328.3876 32.6542 32.6542 0 0 0 430.4782 336.5796 33.2231 33.2231 0 0 0 455.2818 325.2018 65.7067 65.7067 0 0 1 469.504 313.824 78.9049 78.9049 0 0 1 511.7724 301.3084 56.3769 56.3769 0 0 1 553.6996 317.408 22.7556 22.7556 0 0 1 560.3556 335.0436C558.8196 349.3796 544.5973 361.0418 502.0444 383.2853L491.6338 388.6329A268.7431 268.7431 0 0 0 423.0258 433.4044 85.6747 85.6747 0 0 0 398.0516 488.1884 86.7556 86.7556 0 0 0 417.9058 552.7004 115.3138 115.3138 0 0 0 478.9476 590.4747V627.1111A32.9387 32.9387 0 0 0 511.7724 658.0587 33.1093 33.1093 0 0 0 544.768 627.1111V590.6453A149.8453 149.8453 0 0 0 589.0844 572.0427 127.6018 127.6018 0 0 0 617.984 548.2062 32.4836 32.4836 0 0 0 626.0053 524.4267 32.4267 32.4267 0 0 0 614.6276 502.0124 32.3698 32.3698 0 0 0 593.0667 493.7636 32.7111 32.7111 0 0 0 568.4338 505.1413 75.1502 75.1502 0 0 1 554.2116 516.5191 80.7822 80.7822 0 0 1 511.7724 529.2053 56.3769 56.3769 0 0 1 469.8453 513.1058 23.2107 23.2107 0 0 1 463.1893 495.2996C464.7253 481.0773 478.9476 469.472 521.5004 447.2284L531.9111 441.8809A268.9707 268.9707 0 0 0 600.5191 397.0524 85.9022 85.9022 0 0 0 625.4933 342.496 86.528 86.528 0 0 0 605.6391 277.984 114.6311 114.6311 0 0 0 544.5404 240.2098V203.744A33.1093 33.1093 0 0 0 534.8124 180.4764 32.4267 32.4267 0 0 0 511.7156 170.9191Z"  horiz-adv-x="1024" vert-adv-y="1024"  />

      
      <glyph glyph-name="other_info" unicode="&#xE03F;" d="M946.688-100.7253A89.0311 89.0311 0 0 0 857.6569-189.7564H189.8382A89.0311 89.0311 0 0 0 100.8071-100.7253V700.6684A89.0311 89.0311 0 0 0 189.8382 789.6996H640.5689L644.3804 789.6996A38.9689 38.9689 0 0 0 665.0311 781.1662L932.4089 565.8987A37.9449 37.9449 0 0 0 947.0293 536.3164ZM601.4293 711.7618H189.6676A11.3778 11.3778 0 0 1 178.8587 703.1716L178.5742 700.6116V-100.7822A11.3778 11.3778 0 0 1 187.1644-111.5911L189.7244-111.8756H857.4293A11.3778 11.3778 0 0 1 868.2382-103.2853L868.5227-100.7253V496.608H640.2844A38.9689 38.9689 0 0 0 601.6569 530.7413L601.3724 535.6338ZM728.6898 163.0684A8.5333 8.5333 0 0 0 737.2231 154.5351V124.0996A38.9689 38.9689 0 0 0 698.2542 85.1307H318.3502A8.5333 8.5333 0 0 0 309.8169 93.664V124.0996A38.9689 38.9689 0 0 0 348.7858 163.0684ZM728.6898 352.2809A8.5333 8.5333 0 0 0 737.2231 343.7476V313.312A38.9689 38.9689 0 0 0 698.2542 274.3431H318.3502A8.5333 8.5333 0 0 0 309.8169 282.8764V313.312A38.9689 38.9689 0 0 0 348.7858 352.2809ZM679.3102 669.2658V574.3751H797.0702Z"  horiz-adv-x="1024" vert-adv-y="1024"  />

      
      <glyph glyph-name="email_purchases" unicode="&#xE040;" d="M118.3858-115.4027A101.3191 101.3191 0 0 0 17.1804-14.1973V576.3662A101.3191 101.3191 0 0 0 118.3858 677.5716H905.6142A101.4329 101.4329 0 0 0 1006.9902 576.3662V-14.1973A101.4329 101.4329 0 0 0 905.6142-115.4027ZM96.6542-14.1973A21.7884 21.7884 0 0 1 118.3858-35.9858H905.6142A21.7884 21.7884 0 0 1 927.4027-14.1973V547.8649L571.1644 231.2782A89.0311 89.0311 0 0 0 512.1138 208.5227 89.088 89.088 0 0 0 452.8924 231.2782L96.6542 547.8649ZM505.6853 290.6133A9.8987 9.8987 0 0 1 518.3147 290.6133L864.1991 598.0978H159.8578Z"  horiz-adv-x="1024" vert-adv-y="1024"  />

      
      <glyph glyph-name="shipment_order" unicode="&#xE041;" d="M729.8276-1.4542C729.8276 0.4231 729.8276 2.3004 729.8276 4.2347H355.6693C355.6693 2.4142 355.6693 0.5369 355.6693-1.4542A142.2222 142.2222 0 0 0 213.4471-143.6764 142.2222 142.2222 0 0 0 71.2249-1.4542 142.2222 142.2222 0 0 0 73.1022 21.6427 133.4613 133.4613 0 0 0 9.4436 136.9564V364.8533A35.0436 35.0436 0 0 0 21.504 390.9084L158.6062 507.9289A34.6453 34.6453 0 0 0 180.8498 516.1778L410.7378 515.6658V573.0098A170.9511 170.9511 0 0 0 581.4044 743.6764H979.6267A34.1333 34.1333 0 0 0 1013.76 709.5431 34.1333 34.1333 0 0 0 979.6267 675.4098C978.3182 675.4098 976.8391 675.4098 975.0187 675.7511H864.768V675.4098H581.3476A102.4 102.4 0 0 1 478.9476 573.0098V72.3876H750.0231A142.2222 142.2222 0 0 0 871.6516 140.6542 142.2222 142.2222 0 0 0 1013.8738-1.568 142.2222 142.2222 0 0 0 871.6516-143.7902 142.2222 142.2222 0 0 0 729.8276-1.4542ZM798.0942-1.4542A73.9556 73.9556 0 0 1 872.0498-75.4098 73.9556 73.9556 0 0 1 946.0053-1.4542 73.9556 73.9556 0 0 1 872.0498 72.5013 73.9556 73.9556 0 0 1 798.0373-1.4542ZM139.9467-1.4542A73.9556 73.9556 0 0 1 213.9022-75.4098 73.9556 73.9556 0 0 1 287.8578-1.4542 73.9556 73.9556 0 0 1 213.9022 72.5013 73.9556 73.9556 0 0 1 139.8898-1.4542ZM410.6809 71.7049V447.1716L193.6498 447.8542 78.1084 349.152V136.9564A64.9102 64.9102 0 0 1 102.1724 86.7236 142.2222 142.2222 0 0 0 213.7316 140.7111 142.2222 142.2222 0 0 0 335.6444 71.7618ZM624.7538 447.9111A32.8818 32.8818 0 0 0 593.1236 482.0444 32.9956 32.9956 0 0 0 624.7538 516.1778H982.8124A32.9956 32.9956 0 0 0 1014.4427 482.0444 32.8818 32.8818 0 0 0 982.8124 447.9111Z"  horiz-adv-x="1024" vert-adv-y="1024"  />

      
      <glyph glyph-name="summary_order" unicode="&#xE042;" d="M718.1084-164.896H305.8347A41.1876 41.1876 0 0 0 264.6471-123.7653 41.1876 41.1876 0 0 0 305.8347-82.6916H718.1084A41.1876 41.1876 0 0 0 759.296-123.7653 41.1876 41.1876 0 0 0 718.1084-164.896ZM833.8773-5.6071H190.0658A149.9591 149.9591 0 0 0 40.2773 144.1813V615.0507A149.9591 149.9591 0 0 0 190.0658 764.8391H833.8773A150.016 150.016 0 0 0 983.7796 615.0507V144.1813A150.016 150.016 0 0 0 833.8773-5.6071ZM190.0658 682.7484A67.584 67.584 0 0 1 122.5956 615.2213V144.352A67.584 67.584 0 0 1 190.0658 76.768H833.8773A67.6409 67.6409 0 0 1 901.4613 144.352V615.2213A67.584 67.584 0 0 1 833.8773 682.7484ZM711.2249 234.2364A41.1876 41.1876 0 0 0 670.0373 275.3671V431.4702A41.1876 41.1876 0 0 0 711.2249 472.6009 41.1876 41.1876 0 0 0 752.4124 431.4702V275.3671A41.1876 41.1876 0 0 0 711.2249 234.0658ZM507.7902 234.2364A41.1876 41.1876 0 0 0 466.6027 275.3671V504.8A41.1876 41.1876 0 0 0 507.7902 545.9876 41.1876 41.1876 0 0 0 548.9778 504.8V275.3671A41.1876 41.1876 0 0 0 507.7902 234.0658ZM306.3467 234.2364A41.1307 41.1307 0 0 0 265.2729 275.3671V372.0782A41.1307 41.1307 0 0 0 306.3467 413.2089 41.1876 41.1876 0 0 0 347.5342 372.0782V275.3671A41.1876 41.1876 0 0 0 306.3467 234.0658Z"  horiz-adv-x="1024" vert-adv-y="1024"  />

      
      <glyph glyph-name="upload_files" unicode="&#xE043;" d="M1020.7004 204.5404A245.1911 245.1911 0 0 0 775.5093-40.6507 34.4747 34.4747 0 1 0 775.5093 28.2987 176.3556 176.3556 0 0 1 805.2622 378.2222L785.0098 381.6924 778.5244 401.0916A281.8276 281.8276 0 0 1 245.4756 401.0916L238.9902 381.6924 218.7378 378.2222A176.3556 176.3556 0 0 1 248.4907 28.2987 34.4747 34.4747 0 1 0 248.4907-40.6507 245.1911 245.1911 0 0 0 187.2782 441.9947 350.7769 350.7769 0 0 0 836.6649 441.9947 245.1911 245.1911 0 0 0 1020.6436 204.5404ZM516.9493 401.888A34.4747 34.4747 0 0 0 546.7022 384.8213L716.9138 213.7564A34.4747 34.4747 0 1 0 668.2169 165.0596L552.2773 282.7058V-25.8027A34.4747 34.4747 0 1 0 483.328-25.8027V285.7778L364.3733 166.8231A34.4747 34.4747 0 0 0 315.2213 213.8133L491.5769 390.1689A34.4747 34.4747 0 0 0 516.9493 401.888Z"  horiz-adv-x="1024" vert-adv-y="1024"  />

      
      <glyph glyph-name="set_topbar" unicode="&#xE044;" d="M556.3977-79.9771L534.4549-42.528C527.1406-43.04 519.2411-43.4057 511.5611-43.4057S496.2743-43.4057 488.7406-42.528L466.7977-79.9771A100.7177 100.7177 0 0 0 379.0263-130.4457 100.1326 100.1326 0 0 0 328.6309-116.8411L240.8594-66.4457A101.0103 101.0103 0 0 0 204.288 71.4286L226.2309 108.8777A346.9897 346.9897 0 0 0 203.3371 148.5943H160.1829A100.9371 100.9371 0 0 0 59.1726 249.5314V350.5417A100.9371 100.9371 0 0 0 160.1829 451.4789H203.4834A330.6789 330.6789 0 0 0 226.3771 491.1954L204.4343 528.6446A101.0103 101.0103 0 0 0 241.0057 666.5189L328.7771 716.9874A100.4251 100.4251 0 0 0 379.0994 730.5189 100.7177 100.7177 0 0 0 466.8709 680.0503L488.8137 642.6011C496.128 643.1131 503.9543 643.4789 511.6343 643.4789S526.9943 643.4789 534.528 642.6011L556.4709 680.0503A100.6446 100.6446 0 0 0 644.2423 730.5189 100.4983 100.4983 0 0 0 694.6377 716.9874L782.4091 666.5189A101.0103 101.0103 0 0 0 818.9806 528.6446L797.0377 491.1954A346.8434 346.8434 0 0 0 819.9314 451.4789H863.1589A101.0103 101.0103 0 0 0 964.1691 350.5417V249.5314A101.0103 101.0103 0 0 0 863.1589 148.5943H819.9314A338.5051 338.5051 0 0 0 796.9646 108.8777L818.9074 71.4286A100.9371 100.9371 0 0 0 782.336-66.4457L694.5646-116.8411A99.84 99.84 0 0 0 644.2423-130.4457 100.864 100.864 0 0 0 556.3977-79.9771ZM604.7451-2.1531L626.688-39.6023A20.4069 20.4069 0 0 1 644.2423-49.696 19.968 19.968 0 0 1 654.2629-46.9897L742.0343 3.4789A20.2606 20.2606 0 0 1 749.3486 31.0537L727.4057 68.5029A80.4571 80.4571 0 0 0 730.3314 153.8606 261.7051 261.7051 0 0 1 747.8857 184.1417 80.4571 80.4571 0 0 0 820.3703 229.2709H863.5977A20.2606 20.2606 0 0 1 883.7851 249.3851V350.3954A20.2606 20.2606 0 0 1 863.5977 370.5829H820.4434A80.896 80.896 0 0 0 747.9589 415.6389 256 256 0 0 1 730.4046 445.92 80.4571 80.4571 0 0 0 727.4789 531.3509L749.4217 568.7269A20.0411 20.0411 0 0 1 751.4697 584.0869 19.6754 19.6754 0 0 1 742.0343 596.3017L654.2629 646.7703A19.3097 19.3097 0 0 1 644.2423 649.4766 20.0411 20.0411 0 0 1 626.7611 639.3829L604.8183 601.9337A80.4571 80.4571 0 0 0 534.8206 561.5589L529.4811 561.5589C523.4103 561.9977 517.4126 562.144 511.9269 562.144S500.4434 562.144 494.3726 561.5589L489.0331 561.5589A80.4571 80.4571 0 0 0 419.0354 601.9337L397.0926 639.3829A20.1874 20.1874 0 0 1 379.5383 649.4766 19.6023 19.6023 0 0 1 369.5177 646.7703L281.7463 596.3017A19.6754 19.6754 0 0 1 272.384 584.0869 19.5291 19.5291 0 0 1 274.432 568.7269L295.936 531.3509A80.8229 80.8229 0 0 0 293.0103 445.92 256 256 0 0 1 275.456 415.6389 80.4571 80.4571 0 0 0 202.9714 370.5829H159.8171A20.2606 20.2606 0 0 1 139.6297 350.3954V249.3851A20.2606 20.2606 0 0 1 159.8171 229.2709H202.8251A80.896 80.896 0 0 0 275.3097 184.1417 283.9406 283.9406 0 0 1 292.864 153.8606 80.4571 80.4571 0 0 0 295.7897 68.5029L273.8469 31.0537A20.1874 20.1874 0 0 1 281.1611 3.4789L368.9326-46.9897A20.0411 20.0411 0 0 1 378.9531-49.696 20.3337 20.3337 0 0 1 396.5074-39.6023L418.4503-2.1531A80.896 80.896 0 0 0 488.448 38.2217L493.7874 38.2217C499.8583 37.7829 505.856 37.5634 511.3417 37.5634S522.8251 37.5634 528.896 38.2217L534.2354 38.2217A80.4571 80.4571 0 0 0 604.7451-2.08ZM360.5211 300A151.4789 151.4789 0 0 0 512 451.4057 151.4789 151.4789 0 0 0 663.4057 300 151.4789 151.4789 0 0 0 512 148.5943 151.4789 151.4789 0 0 0 360.5211 300ZM440.9783 300A70.7291 70.7291 0 0 1 511.7074 229.344 70.7291 70.7291 0 0 1 582.3634 300 70.7291 70.7291 0 0 1 511.7074 370.7291 70.8023 70.8023 0 0 1 441.344 300Z"  horiz-adv-x="1024" vert-adv-y="1024"  />

      
      <glyph glyph-name="arro_topbar" unicode="&#xE045;" d="M512 103.9893A51.2 51.2 0 0 0 475.7333 119.008L186.1973 408.6293A51.2 51.2 0 0 0 258.56 480.992L512 227.552 765.44 480.992A51.2 51.2 0 0 0 837.888 408.544L548.2667 119.008A51.2 51.2 0 0 0 512 103.9893Z"  horiz-adv-x="1024" vert-adv-y="1024"  />

      
      <glyph glyph-name="mark_main_product" unicode="&#xE046;" d="M163.456-173.024A52.096 52.096 0 0 0 116.672-175.968 37.76 37.76 0 0 0 92.224-142.24V615.904A181.568 181.568 0 0 0 287.168 780.192H736.96A181.568 181.568 0 0 0 931.84 615.904V-142.24A37.76 37.76 0 0 0 907.392-175.968 52.096 52.096 0 0 0 860.608-173.024L512.064 38.176 163.456-173.024ZM841.856 615.904A97.792 97.792 0 0 1 736.896 704.352H287.232A97.792 97.792 0 0 1 182.272 615.904V-68.256L485.888 115.872A51.904 51.904 0 0 0 538.432 115.872L841.92-68.256V615.904Z"  horiz-adv-x="1024" vert-adv-y="1024"  />

      
      <glyph glyph-name="support" unicode="&#xE047;" d="M500.1671-63.9751V-8.9636L500.1671-4.1849A34.1333 34.1333 0 0 0 534.3004 25.3404L538.9653 24.9991A34.1333 34.1333 0 0 0 568.4907-8.8498V-28.2489L583.1111-26.5422A300.1458 300.1458 0 0 1 833.4222 167.392 98.0764 98.0764 0 0 0 785.2942 245.1022L785.2942 252.1564V318.0907A98.3609 98.3609 0 0 0 841.728 407.0649 315.392 315.392 0 0 1 533.1058 651.9716 315.392 315.392 0 0 1 227.0436 407.008 98.4178 98.4178 0 0 0 283.136 325.088L283.136 318.0338V252.0996A98.5884 98.5884 0 0 0 188.1884 153.9662 98.5316 98.5316 0 0 0 86.528 244.9884L86.528 252.0427V317.9769A98.4178 98.4178 0 0 0 158.3787 412.6969 383.488 383.488 0 0 0 534.3573 720.4089 383.7156 383.7156 0 0 0 910.4498 412.64 98.304 98.304 0 0 0 981.8453 324.9742L981.8453 317.92V251.9858A98.304 98.304 0 0 0 901.2907 155.2747 373.8738 373.8738 0 0 0 534.1298-98.336 34.1333 34.1333 0 0 0 500.1671-63.9751ZM853.9591 322.4711L853.6178 318.0338V252.0996A30.0373 30.0373 0 0 1 881.3796 222.2898 30.0942 30.0942 0 0 1 913.408 247.5484L913.7493 252.0996V318.0338A30.0942 30.0942 0 0 1 883.712 348.0711 30.0942 30.0942 0 0 1 853.9591 322.4711ZM155.2498 322.4711L154.9084 318.0338V252.0996A29.9236 29.9236 0 0 1 182.6702 222.2898 30.1511 30.1511 0 0 1 214.6987 247.5484L214.6987 252.0996V318.0338A30.0373 30.0373 0 0 1 184.7182 348.0711 29.9236 29.9236 0 0 1 155.2498 322.4711ZM376.2631 150.7804A34.1333 34.1333 0 0 0 376.9458 199.136 34.1333 34.1333 0 0 0 425.4151 198.5671 143.36 143.36 0 0 1 534.3573 158.7449 143.36 143.36 0 0 1 643.2996 198.5671 34.1333 34.1333 0 0 0 691.6551 199.136 34.1333 34.1333 0 0 0 692.3378 150.7804 211.2284 211.2284 0 0 0 534.4142 90.3076 211.6836 211.6836 0 0 0 376.2631 150.7804Z"  horiz-adv-x="1024" vert-adv-y="1024"  />

      
      <glyph glyph-name="footer_twitter" unicode="&#xE049;" d="M888.512 492.704C889.024 484.448 889.024 475.872 889.024 467.552A548.736 548.736 0 0 0 336.32-84.768 550.4 550.4 0 0 0 38.08 2.272 414.528 414.528 0 0 1 84.928-0.16 389.312 389.312 0 0 1 326.08 82.72 194.24 194.24 0 0 0 144.64 217.12 212.544 212.544 0 0 1 232.256 220.64 194.048 194.048 0 0 0 76.48 411.424V413.664A194.752 194.752 0 0 1 164.096 389.024 194.304 194.304 0 0 0 77.76 550.752 190.208 190.208 0 0 0 104.192 648.672 551.168 551.168 0 0 1 504.576 445.664 194.816 194.816 0 0 0 836.096 623.328 382.464 382.464 0 0 1 959.296 669.984 193.472 193.472 0 0 0 873.984 563.168 384 384 0 0 1 985.92 593.504 406.656 406.656 0 0 0 888.512 492.704Z"  horiz-adv-x="1024" vert-adv-y="1024"  />

      
      <glyph glyph-name="footer_ins" unicode="&#xE04A;" d="M514.88 445.792A149.248 149.248 0 1 1 663.936 296.352 149.248 149.248 0 0 1 514.88 445.792M962.88 296.544C962.88 361.44 962.88 419.872 959.616 481.504A264.832 264.832 0 0 1 887.552 669.088 264.832 264.832 0 0 1 699.968 741.152C638.016 744.992 579.584 744.352 514.88 744.352H329.728A264.832 264.832 0 0 1 142.144 669.088 264.832 264.832 0 0 1 70.08 481.504C66.176 419.872 70.08 358.176 70.08 296.544V111.584A264.832 264.832 0 0 1 142.144-76 264.832 264.832 0 0 1 329.728-148.064C391.36-151.968 453.056-151.328 514.688-151.328S638.016-151.328 699.648-148.064A264.832 264.832 0 0 1 887.232-76 264.832 264.832 0 0 1 959.296 111.584C963.2 173.216 962.56 234.912 962.56 296.544M514.56 66.784A229.12 229.12 0 1 0 677.184 133.856 229.76 229.76 0 0 0 514.88 66.784M753.536 481.952A53.888 53.888 0 1 0 807.424 535.84 53.248 53.248 0 0 0 753.536 481.952"  horiz-adv-x="1024" vert-adv-y="1024"  />

      
      <glyph glyph-name="footer_facebook" unicode="&#xE04B;" d="M512-212C794.7712-212 1024 17.2288 1024 300 1024 582.7699 794.7712 812 512 812 229.2301 812 0 582.7699 0 300 0 47.6736 182.5312-162.0224 422.7558-204.2496V111.5648H307.2V243.12H422.7558V343.3862C422.7558 457.449 490.7027 520.4531 594.6579 520.4531 644.4544 520.4531 696.5312 511.5642 696.5312 511.5642V399.5642H639.1469C582.6138 399.5642 564.9779 364.48 564.9779 328.489V243.12H691.2L671.0208 111.5648H564.9779V-206.464C544.5427-209.6704 523.6659-211.52 502.425-211.9104 505.6096-211.968 508.8013-212 512-212Z"  horiz-adv-x="1024" vert-adv-y="1024"  />

      
      <glyph glyph-name="footer_whatsapp" unicode="&#xE04C;" d="M512.1587-187.3152C416.2496-187.3152 323.5034-159.4752 243.9424-106.8352L56.5855-166.7712 117.3178 14.2912C56.6189 97.7664 24.5215 196.6234 24.5215 300.0077 24.5215 568.7066 243.143 787.3281 511.8419 787.3281 780.7232 787.3281 999.4816 568.7066 999.4816 300.0077 999.4816 31.3088 780.8576-187.3152 512.1587-187.3152ZM356.3667 524.7558C338.5862 524.7558 323.0701 519.3286 313.8138 509.872L312.8653 508.8736C300.4454 496.2874 271.3619 466.8538 271.3619 408.752 271.3619 358.1088 301.9776 308.9306 320.2067 284.1254L320.7066 283.4592C321.0061 283.0598 321.4886 282.3936 322.1216 281.4618L323.0202 280.0966C381.6883 194.7584 454.3232 131.0656 527.5744 100.7296 583.5949 77.5552 622.2688 66.7328 649.2544 66.7328 659.0592 66.7328 666.4832 68.0704 673.0752 69.4976 705.5232 76.5568 744.928 100.3648 754.688 128.064 764.8064 156.5376 764.6912 180.7411 761.7792 185.7357 759.4496 189.8643 753.824 192.5946 745.28 196.6566L744.512 197.0227C742.6496 197.9219 740.6528 198.8538 738.5536 199.9194 724.9856 206.8115 666.5856 235.513 655.8336 239.2755 652.1536 240.6406 648.6208 241.3395 645.312 241.3395 637.6678 241.3395 631.1917 237.6109 626.0141 230.2189L622.0019 224.5587C611.6141 209.9418 601.808 196.1568 593.5341 187.1674 589.2224 182.6387 583.0125 180.1747 576.0538 180.1747 572.0582 180.1747 567.9462 181.0074 564.1504 182.5389 563.4342 182.8717 562.6355 183.1718 561.7862 183.5046L560.0883 184.2035C543.5398 190.9293 509.1283 204.9805 466.7264 242.6381 434.0627 271.8054 410.4723 307.632 399.3184 326.4442 392.3264 338.464 398.2528 345.3568 403.9962 351.9827L404.2464 352.3155C407.7421 356.6771 411.2883 360.473 414.9011 364.2355 417.431 366.9325 419.8784 369.5296 422.3258 372.3264L423.4912 373.6915C428.8186 379.9181 432.048 383.6467 435.7107 391.4714 439.8893 399.4957 437.0259 407.6538 434.0461 413.8464 432.1152 417.7754 420.9274 444.912 410.5888 470.0166L406.6099 479.673C402.7642 489.0624 399.2352 497.6192 396.6547 503.7792 388.6803 522.8243 382.7866 523.8234 370.2342 524.256 366.7379 524.4557 361.4771 524.7558 356.3667 524.7558Z"  horiz-adv-x="1024" vert-adv-y="1024"  />

      
      <glyph glyph-name="footer_telegram" unicode="&#xE04D;" d="M100.224 355.424Q486.784 524.64 616.192 577.696C862.144 680.096 913.088 697.44 946.816 698.144A55.936 55.936 0 0 0 980.544 688.096 37.312 37.312 0 0 0 993.344 663.712 126.208 126.208 0 0 0 993.344 629.28C979.712 485.856 921.6 149.28 892.928-6.816 880.768-73.504 856.384-95.712 832.704-97.888 781.056-102.176 742.336-63.456 689.28-31.2 611.84 20 567.68 52 492.096 101.472 404.608 159.072 461.248 191.072 511.296 244.896 524.096 257.696 750.08 464.352 755.136 482.976A21.504 21.504 0 0 1 750.848 498.784 21.504 21.504 0 0 1 732.224 498.784Q720.768 498.784 359.296 252.064A165.632 165.632 0 0 0 263.296 216.928 611.712 611.712 0 0 0 125.632 248.928C70.4 266.848 26.688 276.192 30.272 307.04 36.416 322.4 57.92 338.912 100.224 355.424Z"  horiz-adv-x="1024" vert-adv-y="1024"  />

      
      <glyph glyph-name="get_rate" unicode="&#xE04E;" d="M908.928 274.336A18.048 18.048 0 0 0 900.608 276 30.976 30.976 0 0 0 875.648 309.152 364.8 364.8 0 0 1 577.024 662.624 347.2 347.2 0 0 1 356.352 639.392 621.184 621.184 0 0 1 275.072 586.272 366.016 366.016 0 0 1 152.256 403.744 33.088 33.088 0 1 0 89.216 423.648 434.24 434.24 0 0 0 233.6 639.328 692.864 692.864 0 0 0 326.528 700.704 403.2 403.2 0 0 0 590.336 730.592 417.152 417.152 0 0 0 923.776 420.064L940.352 453.216A33.408 33.408 0 1 0 1000.064 423.328L938.688 295.328A32 32 0 0 0 908.8 273.76ZM524.096-140.512A411.904 411.904 0 0 0 434.496-130.336 417.152 417.152 0 0 0 100.992 179.936L84.416 146.784A33.408 33.408 0 1 0 24.704 176.608L86.08 304.608A34.56 34.56 0 0 0 124.48 322.848 30.976 30.976 0 0 0 149.44 289.696 364.8 364.8 0 0 1 448.128-63.712 347.2 347.2 0 0 1 668.8-40.48 620.352 620.352 0 0 1 750.08 12.64 366.08 366.08 0 0 1 872.832 195.168 33.088 33.088 0 0 0 935.872 175.264 434.304 434.304 0 0 0 791.552-40.416 600.384 600.384 0 0 0 698.624-101.792 422.4 422.4 0 0 0 524.416-140.192ZM524.096-140.512M502.336 0.544A33.28 33.28 0 0 0 469.184 33.696V564.896A33.152 33.152 0 0 0 535.552 564.896V33.696A33.28 33.28 0 0 0 502.336 0.544ZM502.336 0.544M665.024 385.504H583.424A81.28 81.28 0 0 1 553.536 431.968 116.672 116.672 0 0 1 488.832 446.88 112.576 112.576 0 0 1 430.784 435.296 38.4 38.4 0 0 1 409.216 398.816C409.216 383.904 420.8 372.32 442.368 362.336A533.248 533.248 0 0 1 525.568 337.376 362.112 362.112 0 0 0 630.08 297.568 96 96 0 0 0 679.872 211.296C679.872 125.024 618.496 80.224 497.344 80.224 384.512 80.224 323.136 128.352 314.816 224.608H398.016A92.928 92.928 0 0 1 427.904 164.896 120.192 120.192 0 0 1 495.936 148.32C560.64 148.32 595.52 168.224 595.52 204.768A51.968 51.968 0 0 1 559.04 251.232 359.488 359.488 0 0 1 475.84 274.464 320 320 0 0 0 374.656 310.944 94.656 94.656 0 0 0 326.528 394.144 99.2 99.2 0 0 0 372.992 482.08 208.704 208.704 0 0 0 494.144 513.632C596.992 515.296 656.768 472.16 665.024 385.632ZM665.024 385.504"  horiz-adv-x="1024" vert-adv-y="1024"  />

      
      <glyph glyph-name="allocate_order" unicode="&#xE04F;" d="M457.6549-167.7486A45.4217 45.4217 0 0 0 451.3646-167.3097H84.1874A44.3246 44.3246 0 0 0 40.3017-123.424V555.9269A43.8857 43.8857 0 0 0 66.9257 596.5211L494.2263 767.3097A41.5451 41.5451 0 0 0 511.8537 770.9669 42.496 42.496 0 0 0 529.4811 767.3097L949.3943 596.5211A43.8857 43.8857 0 0 0 976.0183 555.9269V-123.424A44.3246 44.3246 0 0 0 932.1326-167.3097 42.3497 42.3497 0 0 0 926.5006-167.3097 48.3474 48.3474 0 0 0 917.9429-168.1143ZM887.296-79.9771V527.1086L511.6343 678.7337 128.8777 527.1086V-78.88H330.9714L413.4034-78.88C443.6846-78.88 449.9749-78.88 451.2914-78.88A44.9097 44.9097 0 0 0 461.1657-80.0503ZM455.7531 149.0331A43.8857 43.8857 0 0 0 411.8674 192.9189V397.7189A43.8857 43.8857 0 1 0 499.6389 397.7189V236.8046H660.5531A43.8857 43.8857 0 1 0 660.5531 149.0331Z"  horiz-adv-x="1024" vert-adv-y="1024"  />

      
      <glyph glyph-name="arrange_ship_order" unicode="&#xE050;" d="M255.3417-173.0149A216.3566 216.3566 0 0 0 39.2046 43.1223V65.8697H126.976V43.1223A128.5851 128.5851 0 0 1 255.4149-85.2434H768.9509A128.512 128.512 0 0 1 897.2434 43.1223V431.6571H126.976V300H39.2046L39.2046 448.2606A90.1851 90.1851 0 0 0 43.8126 476.0549L80.384 584.672A34.6697 34.6697 0 0 0 82.1394 589.4994 332.1417 332.1417 0 0 0 168.0091 729.3486 224.1097 224.1097 0 0 0 319.7074 773.2343H704.9509A223.744 223.744 0 0 0 854.0891 730.6651 318.0983 318.0983 0 0 0 941.8606 588.256L941.8606 587.5246 941.8606 587.0857 942.2994 585.9154 979.8949 477.7371A89.6 89.6 0 0 0 984.7954 448.9189V43.3417A216.3566 216.3566 0 0 0 768.6583-172.7954ZM872.5943 519.4286L859.5749 556.8777C818.7611 663.52 792.7223 685.1703 704.5851 685.1703H319.3417C229.7417 685.1703 207.7989 667.104 163.2549 556.8777L150.6743 519.4286ZM386.4137 58.6286A43.8857 43.8857 0 0 0 386.4137 120.8L404.48 138.8663H117.1017A43.8857 43.8857 0 0 0 73.216 182.752 43.8857 43.8857 0 0 0 117.1017 226.6377H404.9189L386.7063 244.8503A43.8857 43.8857 0 0 0 386.7063 306.8754 43.8857 43.8857 0 0 0 448.8046 306.8754L541.8423 213.8377A43.4469 43.4469 0 0 0 554.8617 182.8251 43.8857 43.8857 0 0 0 541.8423 151.7394L539.8674 149.7646 448.8046 58.7017A43.8857 43.8857 0 0 0 417.7189 45.9017 44.3977 44.3977 0 0 0 386.4137 58.848Z"  horiz-adv-x="1024" vert-adv-y="1024"  />

      
      <glyph glyph-name="unconnect_purchase" unicode="&#xE051;" d="M354.7429-167.5291A292.9371 292.9371 0 0 0 148.3337 332.5486L234.5691 418.7109A7.3143 7.3143 0 0 0 244.8823 418.7109L299.1543 364.512A7.3143 7.3143 0 0 0 299.1543 354.1989L212.8457 267.8171A201.5086 201.5086 0 0 1 498.1029-17.44L584.4114 68.7954A7.3143 7.3143 0 0 0 594.7246 68.7954L648.9966 14.5234A7.3143 7.3143 0 0 0 648.9966 4.2103L562.688-82.0251A290.9623 290.9623 0 0 0 355.6206-167.8217ZM837.4857-52.4023H837.4857A45.2023 45.2023 0 0 0 805.3029-39.0903L191.5611 574.8709A45.7143 45.7143 0 1 0 256.1463 639.456L869.9611 25.6411A45.6411 45.6411 0 0 0 838.656-52.3291ZM821.0286 179.5337H821.0286A7.3143 7.3143 0 0 0 815.8354 181.6549L761.6366 235.9269A7.3143 7.3143 0 0 0 761.6366 246.24L847.7989 332.4754A202.1669 202.1669 0 0 1 847.7989 617.7326 199.9726 199.9726 0 0 1 705.3166 676.7589H704.6583A201.4354 201.4354 0 0 1 562.7611 617.7326L477.0377 532.0091A7.3143 7.3143 0 0 0 471.4789 529.376 7.3143 7.3143 0 0 0 465.92 531.936L412.0869 585.8423A7.3143 7.3143 0 0 0 412.0869 596.1554L498.3223 682.3177A292.5714 292.5714 0 0 0 704.6583 768.1143H706.1211A292.5714 292.5714 0 0 0 912.384 268.1097L826.1486 181.9474A7.3143 7.3143 0 0 0 820.6629 179.5337Z"  horiz-adv-x="1024" vert-adv-y="1024"  />

      
      <glyph glyph-name="delete_listings" unicode="&#xE052;" d="M215.8446-156.4114A75.8491 75.8491 0 0 0 142.7017-78.368L142.7017 489.3669H91.5017A46.7383 46.7383 0 1 0 91.5017 582.9166H220.0137V623.8766A131.1451 131.1451 0 0 0 349.2571 756.4846H668.3063A131.1451 131.1451 0 0 0 797.5497 623.8766V582.9166H933.376A46.7383 46.7383 0 1 0 933.376 489.3669H874.8617L874.8617-78.368A75.776 75.776 0 0 0 801.7189-156.4114ZM236.1783-62.7154H781.8971L781.4583 488.0503H235.7394ZM311.296 623.8766V584.8183H706.2674V623.8766A38.4 38.4 0 0 1 668.3063 662.7886H349.2571A38.4 38.4 0 0 1 311.296 623.8034Z"  horiz-adv-x="1024" vert-adv-y="1024"  />

      
      <glyph glyph-name="logo_vector" unicode="&#xE054;" d="M130.6027-133.3653A93.4187 93.4187 0 0 0 37.824-39.4987L61.0133 616.608A93.4187 93.4187 0 0 0 153.792 710.4747H261.056V613.1733A104.5333 104.5333 0 0 1 292.864 537.6533 104.9813 104.9813 0 0 1 366.3787 507.7867 104.7893 104.7893 0 0 1 406.4853 515.6587L503.104 555.3387 596.4587 516.32A105.4507 105.4507 0 0 1 637.1413 508.192 105.5573 105.5573 0 0 1 742.5493 613.6V710.4747H849.728A93.4187 93.4187 0 0 0 942.5067 616.608L965.696-39.4987A93.4187 93.4187 0 0 0 872.9173-133.3653ZM305.9413 309.8133A34.368 34.368 0 0 1 293.376 262.88 242.4107 242.4107 0 0 1 501.7813 142.56 242.5387 242.5387 0 0 1 710.272 262.88 34.3253 34.3253 0 0 1 713.7067 289.0133 33.7493 33.7493 0 0 1 697.7067 309.8773 33.856 33.856 0 0 1 680.448 314.4853 34.304 34.304 0 0 1 650.7307 297.4187 173.0133 173.0133 0 0 0 501.7813 211.5307 172.8 172.8 0 0 0 352.9173 297.2907 34.432 34.432 0 0 1 323.0507 314.3573 34.1333 34.1333 0 0 1 305.984 309.8133ZM324.288 613.0027V710.304H324.288A42.6667 42.6667 0 0 0 383.1253 748.1493L420.6293 732.7253 475.4347 710.2827H475.5627L486.848 705.6107 498.7733 700.7253 500.2453 700.0853A30.9973 30.9973 0 0 0 503.296 698.6347C504.384 699.2107 505.5573 699.744 506.4747 700.1493L506.5813 700.1493 507.5627 700.5973 620.1813 747.5307A42.6667 42.6667 0 0 0 679.2533 710.1973H679.2533L679.2533 709.28V613.28A42.24 42.24 0 0 0 637.056 571.0613 42.6667 42.6667 0 0 0 620.736 574.3253L559.3813 599.9253 507.456 621.6427 506.0907 622.24C505.2373 622.5813 504.32 623.0293 503.1893 623.5627 501.8453 622.9013 500.7573 622.3893 499.7547 621.984L435.7547 595.744 382.9333 574.0053 381.4827 573.4507A42.3893 42.3893 0 0 0 366.1867 570.5707 42.24 42.24 0 0 0 324.2667 613.024Z"  horiz-adv-x="1024" vert-adv-y="1024"  />

      
      <glyph glyph-name="footer_email" unicode="&#xE055;" d="M827.7568 732.4378H196.4416C154.6438 732.3117 114.5939 715.6525 85.0387 686.0966 55.483 656.5408 38.8232 616.4915 38.6977 574.6938L38.6143 33.2608C38.7398-8.5376 55.3996-48.5888 84.9549-78.144 114.5107-107.6992 154.5606-124.3584 196.3584-124.4864H827.6736C869.472-124.3584 909.5232-107.6992 939.0784-78.144 968.6336-48.5888 985.2928-8.5376 985.4208 33.2608L985.504 574.6938C985.376 616.4915 968.7168 656.5408 939.1616 686.0966 909.6064 715.6525 869.5552 732.3117 827.7568 732.4378ZM890.88 503.6774L579.2717 294.6451C559.0746 282.2054 535.9174 275.3952 512.2016 274.919 488.4858 275.3952 465.3286 282.2054 445.1315 294.6451L133.5206 503.6774C125.6147 510.2829 120.4333 519.5821 118.976 529.7811 117.5194 539.9802 119.8899 550.3578 125.6301 558.9126 132.2355 566.8192 141.5341 572.0006 151.7331 573.4573 161.9322 574.9146 172.3098 572.544 180.8646 566.8032L492.4749 357.7702C499.049 353.8938 506.5421 351.849 514.1741 351.849 521.8061 351.849 529.2992 353.8938 535.8733 357.7702L847.4816 566.8032C851.8336 569.8125 856.7616 571.9002 861.952 572.935 867.136 573.9706 872.4864 573.9322 877.6576 572.823 882.8352 571.7146 887.7248 569.5584 892.0384 566.4877 896.3456 563.417 899.9808 559.4963 902.72 554.9677 906.7072 546.3155 907.712 536.5824 905.568 527.2992 903.424 518.016 898.2592 509.7069 890.88 503.6774Z"  horiz-adv-x="1024" vert-adv-y="1024"  />

      
      <glyph glyph-name="helpcenter_topbar" unicode="&#xE056;" d="M512 812C229.257 812 0 582.743 0 300 0 17.2544 229.257-212 512-212 794.7456-212 1024 17.2544 1024 300 1024 582.743 794.7456 812 512 812ZM512 25.7152C482.6285 25.7152 458.857 49.4848 458.857 78.8544 458.857 108.2304 482.6285 132 512 132 541.3715 132 565.143 108.2304 565.143 78.8544 565.143 49.4848 541.3715 25.7152 512 25.7152ZM571.3139 241.0285C561.8278 238.0576 555.2 228.9139 555.2 218.9709V198.743C555.2 189.6006 547.7715 182.1722 538.6285 182.1722H485.4854C476.3424 182.1722 468.9139 189.6006 468.9139 198.743V251.8861C469.2576 284.8 494.5146 313.9424 526.6285 318.5146 573.7146 324.6861 608.5715 361.0285 608.5715 403.0861 608.5715 449.8285 565.7146 488.6861 512.1146 488.6861 458.6285 488.6861 415.6576 449.8285 415.6576 402.857 415.6576 394.1722 408.3424 387.2 399.3139 387.2H345.4854C336.4576 387.2 329.143 394.057 329.143 402.9709 329.143 498.3994 412.4576 575.3139 514.5146 574.1722 613.143 572.8 693.6 497.4854 694.8544 405.257 696 330.7424 645.4848 264.9139 571.3139 241.0285Z"  horiz-adv-x="1024" vert-adv-y="1024"  />

      
      <glyph glyph-name="expire_order" unicode="&#xE057;" d="M532.6848-169.0944L879.0016 348.9472A43.8272 43.8272 0 0 1 867.1232 411.104 33.5872 33.5872 0 0 1 843.4688 420.0128H570.88V745.6448A45.568 45.568 0 0 1 526.4384 790.0864 40.96 40.96 0 0 1 490.9056 769.6064L144.5888 251.5648A43.8272 43.8272 0 0 1 156.4672 189.408 33.5872 33.5872 0 0 1 180.1216 180.4992H452.5056V-145.1328A45.568 45.568 0 0 1 496.9472-189.5744 40.96 40.96 0 0 1 532.6848-169.0944Z"  horiz-adv-x="1024" vert-adv-y="1024"  />

      
      <glyph glyph-name="preferences_listing_draft" unicode="&#xE058;" d="M0 243.0858A455.5978 455.5978 0 0 0 455.0858 698.1717C470.3881 698.1717 485.5197 697.3184 500.1393 696.01A298.5932 298.5932 0 0 1 469.3641 629.6812C463.6756 629.6812 459.3523 630.0226 455.0858 630.0226A387.3349 387.3349 0 0 1 68.2629 243.1996 387.2212 387.2212 0 0 1 455.0858-143.6234 386.823 386.823 0 0 1 841.9088 243.1996C841.9088 247.6367 841.9088 252.3582 841.9088 257.3073A297.9106 297.9106 0 0 1 908.2375 288.2531C909.7735 272.9508 910.4561 257.8192 910.4561 243.1996A455.6547 455.6547 0 0 0 455.3703-211.8862 455.5978 455.5978 0 0 0 0 243.0858ZM477.8401 538.8916A273.0515 273.0515 0 0 0 750.8916 811.9431 273.0515 273.0515 0 0 0 1023.9431 538.8916 273.0515 273.0515 0 0 0 750.8916 265.8401 273.0515 273.0515 0 0 0 477.8401 538.8916ZM546.103 538.8916A204.7886 204.7886 0 0 1 750.8916 334.103 205.0731 205.0731 0 0 1 955.6802 538.8916 204.7886 204.7886 0 0 1 750.8916 743.6802 204.7886 204.7886 0 0 1 546.2168 538.8916Z"  horiz-adv-x="1024" vert-adv-y="1024"  />

      
      <glyph glyph-name="compatbility_listing_draft" unicode="&#xE059;" d="M22.7556 300A489.2444 489.2444 0 0 0 512 789.2444 489.2444 489.2444 0 0 0 1001.2444 300 489.2444 489.2444 0 0 0 512-189.2444 489.2444 489.2444 0 0 0 22.7556 300ZM477.8667-119.6693V156.0142A147.9111 147.9111 0 0 0 368.0142 265.9236H92.4444A421.6604 421.6604 0 0 1 477.8667-119.6693ZM546.1333-119.6693A421.6604 421.6604 0 0 1 931.5556 265.8667H656.1564A147.9111 147.9111 0 0 0 546.304 155.9573ZM432.3556 300A79.6444 79.6444 0 0 1 512 220.3556 79.6444 79.6444 0 0 1 591.6444 300 79.6444 79.6444 0 0 1 512 379.6444 79.6444 79.6444 0 0 1 432.3556 300ZM931.5556 334.1333A421.4898 421.4898 0 0 1 512 720.9778 421.4898 421.4898 0 0 1 92.4444 334.1333H368.0142A147.9111 147.9111 0 0 0 512 447.9111 147.9111 147.9111 0 0 0 655.9858 334.1333Z"  horiz-adv-x="1024" vert-adv-y="1024"  />

      
      <glyph glyph-name="specifics_listing_draft" unicode="&#xE05B;" d="M194.8444-160.7431A148.8782 148.8782 0 0 0 45.3973-12.832V500.8747A33.4507 33.4507 0 0 0 49.2089 516.3484L106.9511 628.4196A7.0542 7.0542 0 0 0 107.8613 630.0124C113.5502 639.456 118.3858 648.7289 123.3351 657.7742 149.4471 706.1298 179.0862 760.8 252.5867 760.8H771.4702C845.0844 760.8 875.1218 705.1627 901.632 656.1244 906.3538 647.5911 911.1893 638.4889 916.1956 630.0124 916.5938 629.1591 917.1058 628.4196 917.504 627.6231L975.1324 507.4169A33.7351 33.7351 0 0 0 978.5458 492.6258V-12.8889A148.8213 148.8213 0 0 0 829.0987-160.8ZM113.7209-12.832A80.6116 80.6116 0 0 1 194.8444-92.4764H829.0418A80.5547 80.5547 0 0 1 910.2791-12.832V442.2791H113.8347ZM183.1253 625.3476C178.2898 616.0178 172.8853 606.4036 167.1396 596.448L123.0507 510.4889H897.9342L856.576 596.96C851.1716 606.0053 846.336 614.9369 841.6142 623.7547 814.592 673.76 801.4507 692.5333 771.4133 692.5333H252.5298C222.4356 692.5902 210.2044 675.1822 183.1822 625.3476ZM313.9698 266.5493H430.2507L424.2204 242.656 513.7067 120.5156 603.1929 242.656 594.2613 266.5493H710.5422C713.5573 266.5493 513.7067 4.2347 513.7067 4.2347Z"  horiz-adv-x="1024" vert-adv-y="1024"  />

      
      <glyph glyph-name="photos_video_listing_draft" unicode="&#xE05C;" d="M633.0596-127.3493L543.5164 27.5022H303.5591L214.3004-127.3493A34.1333 34.1333 0 0 0 184.6613-144.416 33.2231 33.2231 0 0 0 167.5947-139.808 34.1333 34.1333 0 0 0 154.9653-93.216L224.6542 27.5022H192.7964A171.2924 171.2924 0 0 0 21.6178 198.8516V571.9289A171.2924 171.2924 0 0 0 192.7964 743.2782H621.9093A171.3493 171.3493 0 0 0 792.576 581.6L855.1538 645.7138A85.9591 85.9591 0 0 0 948.6791 664.7147 86.016 86.016 0 0 0 1002.2116 585.8098V185.2551A85.3333 85.3333 0 0 0 948.6791 106.0658 82.1476 82.1476 0 0 0 916.5938 99.5804 86.016 86.016 0 0 0 855.1538 125.3511L792.576 189.5218A171.2924 171.2924 0 0 0 621.9093 27.5022L691.4844-93.216A34.1333 34.1333 0 0 0 679.1396-139.808 33.0524 33.0524 0 0 0 662.0729-144.416 33.7351 33.7351 0 0 0 633.0596-127.3493ZM90.2258 571.872V198.7947A102.7413 102.7413 0 0 1 192.6258 95.9396H621.7387A102.7413 102.7413 0 0 1 724.1387 198.7947V571.872A102.7413 102.7413 0 0 1 621.7387 674.6702H192.6258A102.7413 102.7413 0 0 1 90.1689 571.872ZM793.1449 287.4276L904.5902 174.7876A16.7253 16.7253 0 0 1 923.4204 171.0898 17.0667 17.0667 0 0 1 934.0587 186.7911V585.9804A16.7253 16.7253 0 0 1 923.4204 601.6818 17.0667 17.0667 0 0 1 904.5902 598.0409L793.1449 484.2631V287.7689ZM184.832 496.2667A34.1333 34.1333 0 0 0 150.6987 530.4 34.1333 34.1333 0 0 0 184.832 564.5333H356.1813A34.1333 34.1333 0 0 0 390.3147 530.4 34.1333 34.1333 0 0 0 356.1813 496.2667Z"  horiz-adv-x="1024" vert-adv-y="1024"  />

      
      </font>
</defs>
</svg>
